↑↓Torrent.by
Поиск
Логин: Регистрация
Пароль: Восстановить пароль
Загрузка...

Год культуры [01-04] (2018) WEBRip от GeneralFilm

Скачать god-kultury-01-04-2018-webrip-ot-generalfilm.torrent
U Магнитная ссылка Размер: 1.46 GB Раздают: 190 Качают: 149 Добавлен: 2018-12-02 08:47:55
Год культуры [01-04] (2018) WEBRip от GeneralFilm

Оригинальное название: Год культуры
Год выпуска: 2018
Жанр:  комедия
Режиссер: Тито Калатозишвили
В ролях: Фёдор Бондарчук, Мария Ахметзянова, Александр Лыков, Александр Яценко, Риналь Мухаметов, Ольга Медынич, Валерия Шкирандо, Александр Обласов, Мария Карпова, Александр Ильин, Иван Мартынов, Игорь Угольников, Виктория Верберг

О фильме:
Нерадивый чиновник Виктор Сычев отправляется «в ссылку» на кафедру словесности в региональный вуз. Там ему придется сменить уютное кожаное кресло и просторный кабинет на шаткую табуретку и пыльную аудиторию. Что может быть лучше для служителя Министерства образования, чем полное погружение в это самое образование? И чем может обернуться для высокопоставленного чиновника халатное отношение к собственным обязанностям?

Страна: Россия
Студия: Comedy Club Production, Art Pictures Vision
Продолжительность: 4 x ~ 00:45:00
Перевод: Не требуется
Субтитры: нет

Файл
Формат: avi
Качество: WEBRip
Видео: XviD build 73, 720x400 (16:9), 25.000 fps, ~ 1550 Kbps (~ 0.215 bit/pixel)
Звук: 48.0 kHz, AC3, 2/0 ch, 192 kbps

Релиз:


[+] MediaInfo
General
Complete name               : D:RazdachiGod.Kuljtury.2018.XviD.WEBRip.GeneralFilmGod.Kuljtury.e01.avi
Format                      : AVI
Format/Info                 : Audio Video Interleave
File size                   : 557 MiB
Duration                    : 44 min 24 s
Overall bit rate            : 1 754 kb/s
Writing application         : VirtualDubMod 1.5.10.3 | www.virtualdub-fr.org || (build 2550/release)
Writing library             : VirtualDubMod build 2550/release

Video
ID                          : 0
Format                      : MPEG-4 Visual
Format profile              : Advanced Simple@L5
Format settings, BVOP       : 1
Format settings, QPel       : No
Format settings, GMC        : No warppoints
Format settings, Matrix     : Custom
Codec ID                    : XVID
Codec ID/Hint               : XviD
Duration                    : 44 min 24 s
Bit rate                    : 1 552 kb/s
Width                       : 720 pixels
Height                      : 400 pixels
Display aspect ratio        : 16:9
Frame rate                  : 25.000 FPS
Color space                 : YUV
Chroma subsampling          : 4:2:0
Bit depth                   : 8 bits
Scan type                   : Progressive
Compression mode            : Lossy
Bits/(Pixel*Frame)          : 0.216
Stream size                 : 493 MiB (88%)
Writing library             : XviD 73

Audio
ID                          : 1
Format                      : AC-3
Format/Info                 : Audio Coding 3
Format settings, Endianness : Big
Codec ID                    : 2000
Duration                    : 44 min 24 s
Bit rate mode               : Constant
Bit rate                    : 192 kb/s
Channel(s)                  : 2 channels
Channel positions           : Front: L R
Sampling rate               : 48.0 kHz
Frame rate                  : 31.250 FPS (1536 SPF)
Bit depth                   : 16 bits
Compression mode            : Lossy
Stream size                 : 61.0 MiB (11%)
Alignment                   : Split accross interleaves
Interleave, duration        : 40  ms (1.00 video frame)
Interleave, preload duratio : 500  ms
Service kind                : Complete Main



Скриншоты:
[+] Всего файлов в раздаче - 4:
God.Kuljtury.e01.avi556.88 MB
God.Kuljtury.e02.avi309.47 MB
God.Kuljtury.e03.avi312.86 MB
God.Kuljtury.e04.avi315.21 MB

Текущая раздача:
ДатаКомментарии    РазмерПиры
2018-12-02 U Год культуры [01-04] (2018) WEBRip от GeneralFilm 1.46 GB ↑ 190 ↓ 149

Показать еще раздачи по запросу культуры:
2018-12-14 U Год культуры [01-08] (2018) WEBRip-AVC 2.79 GB ↑ 427 ↓ 568
2018-12-13 U Год культуры [01-08] (2018) WEBRip от GeneralFilm 2.73 GB ↑ 92 ↓ 103
2018-12-06 U Год культуры [01-06 из 20] (2018) WEBRip 2.21 GB ↑ 73 ↓ 230
2018-11-29 U Год культуры [01-04 из 20] (2018) WEBRip 1080p 4.31 GB ↑ 121 ↓ 171
2018-11-29 U Год культуры [01-04 из 20] (2018) WEBRip 720p от ExKinoRay 2.31 GB ↑ 77 ↓ 81
2018-11-29 U Год культуры [01-04 из 20] (2018) WEBRip 1.54 GB ↑ 153 ↓ 256
2018-11-22 U Год культуры [01-02 из 20] (2018) WEBRip 720p от ExKinoRay 1.34 GB ↑ 107 ↓ 24

Отзывы
Зарегистрируйтесь чтобы добавить комментарий.
Обратная связь
Copyleft ©