↑↓Torrent.by
Поиск
Логин: Регистрация
Пароль: Восстановить пароль
Загрузка...

Синичка [S02] (2018) WEB-DLRip от GeneralFilm

Скачать sinichka-s02-2018-web-dlrip-ot-generalfilm.torrent
U Магнитная ссылка Размер: 2.18 GB Раздают: 116 Качают: 39 Добавлен: 2018-12-02 08:48:35
Синичка [S02] (2018) WEB-DLRip от GeneralFilm

Оригинальное название: Синичка
Год выпуска: 2018
Жанр:  детектив
Режиссер: Валентина Власова
В ролях: Сергей Губанов, Глафира Тарханова, Татьяна Лютаева, Владислав Ветров, Кирилл Запорожский, Алексей Демидов, Аристарх Ливанов, Алёна Константинова, Максим Битюков, Александр Хмельницкий, Сергей Стёпин, Евгения Евстигнеева (II), Евгения Ярушникова, Игорь Захаров (IV), Павел Кузьмин

О фильме:
Ночью на лесной трассе под колеса автомобиля попадает молодая девушка Марина Мухина. Перед смертью в бессвязном бреду она упоминает про бабочек и человека в маске. Информация о странном ДТП доходит до Лёвина. Он понимает, что смерть Мухиной — продолжение серии загадочных убийств, которые расследовал прошлой зимой. Про девушку не удается узнать ничего, что помогло бы найти преступника. Единственное, что осталось после Марины, — ее рисунки. Лёвин чувствует, что довести до конца зимнее дело ему может помочь только один человек — Синичка. Вместе с возобновлением расследования, возвращаются и былые чувства героев, о которых они так старательно пытались забыть.

Страна: Россия
Студия: Телекомпания «Марс Медиа»
Продолжительность: 4 x ~ 00:44:00
Перевод: Не требуется
Субтитры: нет

Файл
Формат: avi
Качество: WEB-DLRip
Видео: XviD build 73, 720x400 (16:9), 25.000 fps, ~ 1500 Kbps (~ 0.210 bit/pixel)
Звук: 48.0 kHz, AC3, 2/0 ch, 192 kbps

Релиз:


[+] MediaInfo
General
Complete name               : D:RazdachiSinichka.s02.2018.XviD.WEB-DLRip.GeneralFilmSinichka.s02.e01.avi
Format                      : AVI
Format/Info                 : Audio Video Interleave
File size                   : 557 MiB
Duration                    : 45 min 5 s
Overall bit rate            : 1 727 kb/s
Writing application         : VirtualDubMod 1.5.10.3 | www.virtualdub-fr.org || (build 2550/release)
Writing library             : VirtualDubMod build 2550/release

Video
ID                          : 0
Format                      : MPEG-4 Visual
Format profile              : Advanced Simple@L5
Format settings, BVOP       : 1
Format settings, QPel       : No
Format settings, GMC        : No warppoints
Format settings, Matrix     : Custom
Codec ID                    : XVID
Codec ID/Hint               : XviD
Duration                    : 45 min 5 s
Bit rate                    : 1 525 kb/s
Width                       : 720 pixels
Height                      : 400 pixels
Display aspect ratio        : 16:9
Frame rate                  : 25.000 FPS
Color space                 : YUV
Chroma subsampling          : 4:2:0
Bit depth                   : 8 bits
Scan type                   : Progressive
Compression mode            : Lossy
Bits/(Pixel*Frame)          : 0.212
Stream size                 : 492 MiB (88%)
Writing library             : XviD 73

Audio
ID                          : 1
Format                      : AC-3
Format/Info                 : Audio Coding 3
Format settings, Endianness : Big
Codec ID                    : 2000
Duration                    : 45 min 5 s
Bit rate mode               : Constant
Bit rate                    : 192 kb/s
Channel(s)                  : 2 channels
Channel positions           : Front: L R
Sampling rate               : 48.0 kHz
Frame rate                  : 31.250 FPS (1536 SPF)
Bit depth                   : 16 bits
Compression mode            : Lossy
Stream size                 : 61.9 MiB (11%)
Alignment                   : Split accross interleaves
Interleave, duration        : 40  ms (1.00 video frame)
Interleave, preload duratio : 500  ms
Service kind                : Complete Main



Скриншоты:
[+] Всего файлов в раздаче - 4:
Sinichka.s02.e01.avi556.83 MB
Sinichka.s02.e02.avi556.88 MB
Sinichka.s02.e03.avi556.92 MB
Sinichka.s02.e04.avi557.14 MB

Текущая раздача:
ДатаКомментарии    РазмерПиры
2018-12-02 U Синичка [S02] (2018) WEB-DLRip от GeneralFilm 2.18 GB ↑ 116 ↓ 39

Показать еще раздачи по запросу синичка:
2018-12-02 U Синичка [S02] (2018) WEB-DLRip-AVC от Files-x 2.25 GB ↑ 114 ↓ 34
2018-12-01 U Синичка [S02] (2018) WEB-DL 720p 4.09 GB ↑ 265 ↓ 89
2018-12-01 U Синичка [S02] (2018) WEB-DLRip 2.32 GB ↑ 482 ↓ 165
2018-11-25 U Синичка [01-04 из 04] (2018) WEB-DLRip от GeneralFilm 2.18 GB ↑ 270 ↓ 89
2018-11-24 U Синичка [01-04 из 04] (2018) WEB-DLRip-AVC от Files-x 2.23 GB ↑ 240 ↓ 151
2018-11-24 U Синичка [01-04 из 04] (2018) WEB-DLRip 2.30 GB ↑ 485 ↓ 139
2018-11-24 U Синичка [01-04 из 04] (2018) WEB-DL 720p 4.08 GB ↑ 122 ↓ 150

Отзывы
Зарегистрируйтесь чтобы добавить комментарий.
Обратная связь
Copyleft ©