↑↓Torrent.by
Поиск
Логин: Регистрация
Пароль: Восстановить пароль
Загрузка...

Никто, кроме нас (2018) HDTVRip от GeneralFilm

Скачать nikto-krome-nas-2018-hdtvrip-ot-generalfilm.torrent
U Магнитная ссылка Размер: 2.18 GB Раздают: 238 Качают: 50 Добавлен: 2018-12-02 15:41:47
Никто, кроме нас (2018) HDTVRip от GeneralFilm

Оригинальное название: Никто, кроме нас
Год выпуска: 2018
Жанр:  Мелодрама
Режиссер: Рано Кубаева
В ролях: Кристина Кузьмина, Наталья Ткаченко, Александр Кудренко, Геннадий Смирнов, Дарья Пармененкова, Андрис Булис, Надежда Мельникова, Мария Скуратова (II), Екатерина Белова (III)

О фильме: Несмотря на то, что Вера и Люба – сёстры, они абсолютно разные. Для Веры главное в жизни – это работа. Она высококлассный хирург и отдает профессии все свое время и силы, жертвуя порой отношениями с дочерью и личным счастьем. Люба – домохозяйка. Всю себя она посвящает мужу и детям. Из-за разных взглядов на жизнь сестры постоянно ссорятся и уже практически не разговаривают друг с другом. Но внезапно все меняется! Оказывается, что Люба не нужна ни мужу, ни детям, которые устали от ее заботы. А Веру отстраняют от работы – ее предали коллеги, и ей грозит тюрьма. Теперь сестрам придется искать путь друг к другу, ведь никто кроме них самих им не поможет...

Страна: Россия
Студия: Беркана, Медиа-Арена
Продолжительность: 02:56:43
Перевод: Не требуется
Субтитры: нет

Файл
Формат: avi
Качество: HDTVRip
Видео: XviD build 73, 720x400 (16:9), 25.000 fps, 1559 Kbps (0.217 bit/pixel)
Звук: 48.0 kHz, AC3, 2/0 ch, 192 kbps

Релиз:


[+] MediaInfo
General
Complete name               : D:RazdachiNikto.Krome.Nas.2018.XviD.HDTVRip.GeneralFilm.avi
Format                      : AVI
Format/Info                 : Audio Video Interleave
Format profile              : OpenDML
File size                   : 2.18 GiB
Duration                    : 2 h 56 min
Overall bit rate            : 1 763 kb/s
Writing application         : VirtualDubMod 1.5.10.3 | www.virtualdub-fr.org || (build 2550/release)
Writing library             : VirtualDubMod build 2550/release

Video
ID                          : 0
Format                      : MPEG-4 Visual
Format profile              : Advanced Simple@L5
Format settings, BVOP       : 1
Format settings, QPel       : No
Format settings, GMC        : No warppoints
Format settings, Matrix     : Custom
Codec ID                    : XVID
Codec ID/Hint               : XviD
Duration                    : 2 h 56 min
Bit rate                    : 1 559 kb/s
Width                       : 720 pixels
Height                      : 400 pixels
Display aspect ratio        : 16:9
Frame rate                  : 25.000 FPS
Color space                 : YUV
Chroma subsampling          : 4:2:0
Bit depth                   : 8 bits
Scan type                   : Progressive
Compression mode            : Lossy
Bits/(Pixel*Frame)          : 0.217
Stream size                 : 1.92 GiB (88%)
Writing library             : XviD 73

Audio
ID                          : 1
Format                      : AC-3
Format/Info                 : Audio Coding 3
Format settings, Endianness : Big
Codec ID                    : 2000
Duration                    : 2 h 56 min
Bit rate mode               : Constant
Bit rate                    : 192 kb/s
Channel(s)                  : 2 channels
Channel positions           : Front: L R
Sampling rate               : 48.0 kHz
Frame rate                  : 31.250 FPS (1536 SPF)
Bit depth                   : 16 bits
Compression mode            : Lossy
Stream size                 : 243 MiB (11%)
Alignment                   : Split accross interleaves
Interleave, duration        : 40  ms (1.00 video frame)
Interleave, preload duratio : 500  ms
Service kind                : Complete Main



Скриншоты:
[+] Всего файлов в раздаче - 1:
Nikto.Krome.Nas.2018.XviD.HDTVRip.GeneralFilm.avi2.18 GB

Текущая раздача:
ДатаКомментарии    РазмерПиры
2018-12-02 U Никто, кроме нас (2018) HDTVRip от GeneralFilm 2.18 GB ↑ 238 ↓ 50

Показать еще раздачи по запросу никто:
2018-07-18 U Пока никто не поранился / Before Someone Gets Hurt (2018) WEBRip 720p | L2 2.07 GB ↑ 64 ↓ 28
2018-07-18 U Пока никто не поранился / Before Someone Gets Hurt (2018) WEBRip | L2 1.31 GB ↑ 55 ↓ 16
2018-06-19 U Никто не знаменит / Nobody Famous (2018) WEBRip | L2 1.01 GB ↑ 29 ↓ 8
2018-01-13 U Никто не совершенен / Nessuno è perfetto (1981) DVDRip-AVC от ExKinoRay | A 1.58 GB ↑ 82 ↓ 18
2017-02-12 U Никто не знает про секс (2006) HDTVRip-AVC от KinoHitHD 1.43 GB ↑ 327 ↓ 5
2016-11-10 U Гражданин Никто [01-16 из 16] (2016) HDTVRip от Files-x 1К9.48 GB ↑ 188 ↓ 314
2016-11-08 U Гражданин Никто [01-11 из 20] (2016) HDTVRip от Files-x 1К6.44 GB ↑ 104 ↓ 160

Отзывы
Зарегистрируйтесь чтобы добавить комментарий.
Обратная связь
Copyleft ©