↑↓Torrent.by
Поиск
Логин: Регистрация
Пароль: Восстановить пароль
Загрузка...

Пришелец (2018) WEB-DL 1080p | iTunes

Скачать prishelec-2018-web-dl-1080p-itunes.torrent
U Магнитная ссылка Размер: 3.12 GB Раздают: 1080 Качают: 406 Добавлен: 2018-12-03 09:38:07
Пришелец (2018) WEB-DL 1080p | iTunes

Название: Пришелец
Год выпуска: 2018
Жанр:  Приключения, фантастика, драма
Режиссёр: Александр Куликов
В ролях: Андрей Смоляков, Юрий Цурило, Григорий Сиятвинда, Максим Виторган, Александр Куликов, Анна Банщикова, Евгения Шипова

Описание:
В результате цепи трагических случайностей на далекой планете в одиночестве оказывается космонавт. Его жизнь находится в постоянной опасности. Нечто необъяснимое, вступившее с ним в контакт, навсегда изменит его. С этой минуты он станет потерянным и для себя и для людей.

И сколько раз ему придется умереть, чтобы доказать, что он жив…

Страна: Россия
Студия: Кинокомпания «Союз Маринс Групп»
Продолжительность: 01:31:04
Язык: Русский

Файл
Формат: MKV
Качество: WEB-DL 1080p
Видео: 1908x792 (2,40:1), 23,976 fps, MPEG-4 AVC ~ 4519 kbps avg, 0.125 bit/pixel
Звук: AC3, 48 kHz, 6 ch, ~384.00 kbps avg | русский | iTunes

Субтитры: Отсутствуют


[+] Инфо-файл
Общее
Уникальный идентификатор                 : 24745306621261254973137839611004229113 (0x129DC5CFB31360615745C529E0B695F9)
Полное имя                               : PRISHELETS (2018) WEB-DL 1080p.mkv
Формат                                   : Matroska
Версия формата                           : Version 4 / Version 2
Размер файла                             : 3,12 Гбайт
Продолжительность                        : 1 ч. 31 м.
Общий поток                              : 4905 Кбит/сек
Название фильма                          : PRISHELETS (2018) WEB-DL 1080p
Дата кодирования                         : UTC 2018-12-02 21:19:50
Программа кодирования                    : mkvmerge v27.0.0 ('Metropolis') 64-bit
Библиотека кодирования                   : libebml v1.3.6 + libmatroska v1.4.9

Видео
Идентификатор                            : 1
Формат                                   : AVC
Формат/Информация                        : Advanced Video Codec
Профиль формата                          : High@L4
Настройки формата                        : CABAC / 5 Ref Frames
Параметр CABAC формата                   : Да
Параметр RefFrames формата               : 5 кадров
Идентификатор кодека                     : V_MPEG4/ISO/AVC
Продолжительность                        : 1 ч. 31 м.
Битрейт                                  : 4519 Кбит/сек
Ширина                                   : 1908 пикселей
Высота                                   : 792 пикселя
Соотношение сторон                       : 2,40:1
Режим частоты кадров                     : Постоянный
Частота кадров                           : 23,976 (24000/1001) кадра/сек
Цветовое пространство                    : YUV
Субдискретизация насыщенности            : 4:2:0
Битовая глубина                          : 8 бит
Тип развёртки                            : Прогрессивная
Бит/(Пиксели*Кадры)                      : 0.125
Размер потока                            : 2,87 Гбайт (92%)
Заголовок                                : PRISHELETS (2018) WEB-DL 1080p
Язык                                     : English
Default                                  : Да
Forced                                   : Нет
Цветовой диапазон                        : Limited
Основные цвета                           : BT.709
Характеристики трансфера                 : BT.709
Коэффициенты матрицы                     : BT.709

Аудио
Идентификатор                            : 2
Формат                                   : AC-3
Формат/Информация                        : Audio Coding 3
Идентификатор кодека                     : A_AC3
Продолжительность                        : 1 ч. 31 м.
Вид битрейта                             : Постоянный
Битрейт                                  : 384 Кбит/сек
Каналы                                   : 6 каналов
Расположение каналов                     : Front: L C R, Side: L R, LFE
Частота                                  : 48,0 КГц
Частота кадров                           : 31,250 кадров/сек (1536 SPF)
Битовая глубина                          : 16 бит
Метод сжатия                             : С потерями
Размер потока                            : 250 Мбайт (8%)
Заголовок                                : iTunes | PRISHELETS (2018) WEB-DL 1080p
Язык                                     : Russian
Default                                  : Да
Forced                                   : Да

Меню
00:00:00.000                             : en:1
00:07:31.000                             : en:2
00:15:44.000                             : en:3
00:25:23.000                             : en:4
00:36:04.000                             : en:5
00:47:39.000                             : en:6
00:57:26.000                             : en:7
01:05:40.000                             : en:8
01:14:43.000                             : en:9
01:26:15.000                             : en:10




Скриншоты:
[+] Всего файлов в раздаче - 1:
PRISHELETS (2018) WEB-DL 1080p.mkv3.12 GB

Показать еще раздачи по запросу пришелец:
2018-12-03 U Пришелец (2018) WEB-DLRip-AVC от OlLanDGroup | iTunes 1.46 GB ↑ 297 ↓ 125
2018-12-03 U Пришелец (2018) WEB-DLRip-AVC | iTunes 744.35 MB ↑ 143 ↓ 53
2018-12-03 U Пришелец (2018) WEB-DLRip от GeneralFilm | iTunes 745.24 MB ↑ 154 ↓ 64
2018-12-03 U Пришелец (2018) WEB-DLRip от MegaPeer | iTunes 1.46 GB ↑ 1238 ↓ 508
2016-02-02 U Владислав Кулигин - Пришелец из рая (2016) FB2 2.15 MB ↑ 83 ↓ 1
2014-10-30 U В погоне за НЛО: Маленький пришелец / Chasing UFOs: Alien Baby Farm (2012) HDTVRip от Deadmauvlad 478.05 MB ↑ 114 ↓ 17
2014-03-12 U Пришелец / Impostor (2001) BDRip 1080p от NNNB | Theatrical Cut 7.75 GB ↑ 98 ↓ 80

Отзывы
Зарегистрируйтесь чтобы добавить комментарий.
Обратная связь
Copyleft ©