↑↓Torrent.by
Поиск
Логин: Регистрация
Пароль: Восстановить пароль
Загрузка...

Наркоман Павлик [S05] (2018) WEB-DLRip 1080p

Скачать narkoman-pavlik-s05-2018-web-dlrip-1080p.torrent
U Магнитная ссылка Размер: 9.30 GB Раздают: 81 Качают: 74 Добавлен: 2018-12-04 04:09:57
Наркоман Павлик [S05] (2018) WEB-DLRip 1080p

Название: Наркоман Павлик
Год выхода: 2018
Жанр: Комедия, короткометражный
Режиссер: Павел Радонцев
В ролях: Павел Радонцев, Денис Гущин, Кирилл Демидов, Антон Батищев, Илья Сорокин, Андрей Савицкий, Регина Вожова, Иван Солдаткин, Ольга Лапушкина, Михаил Мартынов, Хамид Дышниев, Андрей Мирославский, Артём Веретенников, Николай Гусляров

О сериале:
Короткометражный, юмористический сериал о приключениях Павлика, от участников проектов Comedy Club Samara Style, Comedy Club Saint-Petersburg. Сериал стремительно набирает популярность, фразы Павлика всё чаще встречаются на просторах рунета. "Здорова братиш!" - если вы слышали это и не знали откуда, смотрите. Очень угарная и ржачная тема!

Страна: Россия
Студия: Comedoz
Продолжительность: ~00:25:00
Перевод: Не требуется
Субтитры: Нет

Файл
Формат: MKV
Качество: WEB-DLRip (1080p)

Видео: MPEG-4 AVC, ~ 5000 Кбит/с, 1920x1080
Звук: AC3, 2 ch, 192 Кбит/с
[+] MediaInfo
Общее
Уникальный идентификатор                 : 17708616089589781769623812412704391206 (0xD528E2EB2C546FCC36017B1A83D8026)
Полное имя                               : E:ТоррентPavlik.S05.WEB-DL.1080pPavlik.S05E01.WEB-DL.1080p.mkv
Формат                                   : Matroska
Версия формата                           : Version 4
Размер файла                             : 958 Мбайт
Продолжительность                        : 25 м. 41 с.
Общий поток                              : 5211 Кбит/сек
Дата кодирования                         : UTC 2018-12-02 17:27:30
Программа кодирования                    : mkvmerge v29.0.0 ('Like It Or Not') 64-bit
Библиотека кодирования                   : libebml v1.3.6 + libmatroska v1.4.9
Attachments                              : poster.jpg

Видео
Идентификатор                            : 1
Формат                                   : AVC
Формат/Информация                        : Advanced Video Codec
Профиль формата                          : Main@L5.1
Настройки формата                        : CABAC / 1 Ref Frames
Параметр CABAC формата                   : Да
Параметр RefFrames формата               : 1 кадр
Идентификатор кодека                     : V_MPEG4/ISO/AVC
Продолжительность                        : 25 м. 41 с.
Битрейт                                  : 5017 Кбит/сек
Ширина                                   : 1920 пикселей
Высота                                   : 1080 пикселей
Соотношение сторон                       : 16:9
Режим частоты кадров                     : Постоянный
Частота кадров                           : 25,000 кадров/сек
Цветовое пространство                    : YUV
Субдискретизация насыщенности            : 4:2:0
Битовая глубина                          : 8 бит
Тип развёртки                            : Прогрессивная
Бит/(Пиксели*Кадры)                      : 0.097
Размер потока                            : 922 Мбайт (96%)
Default                                  : Да
Forced                                   : Нет

Аудио
Идентификатор                            : 2
Формат                                   : AC-3
Формат/Информация                        : Audio Coding 3
Коммерческое название                    : Dolby Digital
Идентификатор кодека                     : A_AC3
Продолжительность                        : 25 м. 41 с.
Вид битрейта                             : Постоянный
Битрейт                                  : 192 Кбит/сек
Каналы                                   : 2 канала
Channel layout                           : L R
Частота                                  : 48,0 КГц
Частота кадров                           : 31,250 кадров/сек (1536 SPF)
Битовая глубина                          : 16 бит
Метод сжатия                             : С потерями
Размер потока                            : 35,3 Мбайт (4%)
Default                                  : Да
Forced                                   : Нет



Скриншоты:
[+] Всего файлов в раздаче - 10:
Pavlik.S05E01.WEB-DL.1080p.mkv957.73 MB
Pavlik.S05E02.WEB-DL.1080p.mkv940.91 MB
Pavlik.S05E03.WEB-DL.1080p.mkv980.69 MB
Pavlik.S05E04.WEB-DL.1080p.mkv919.87 MB
Pavlik.S05E05.WEB-DL.1080p.mkv839.79 MB
Pavlik.S05E06.WEB-DL.1080p.mkv824.48 MB
Pavlik.S05E07.WEB-DL.1080p.mkv1.18 GB
Pavlik.S05E08.WEB-DL.1080p.mkv892.13 MB
Pavlik.S05E09.WEB-DL.1080p.mkv918.01 MB
Pavlik.S05E10.WEB-DL.1080p.mkv1.02 GB

Текущая раздача:
ДатаКомментарии    РазмерПиры
2018-12-04 U Наркоман Павлик [S05] (2018) WEB-DLRip 1080p 9.30 GB ↑ 81 ↓ 74

Похожие раздачи по запросу - наркоман:
2018-06-04 U Наркоман Павлик [S04] (2018) WEB-DL 1080p 4.93 GB ↑ 155 ↓ 93
2017-10-01 U Наркоман Павлик [S01-04], Павлик Z (2012-2017) WEBRip | comedoz & 7turza 4К10.02 GB ↑ 156 ↓ 224
2016-11-15 U Наркоман Павлик [S01-04] (2012-2016) WEBRip | comedoz & 7turza 9.37 GB ↑ 101 ↓ 146
2014-02-14 U Наркоман Павлик [01x01-20 из 20] (2012) WEBRip | comedoz & Xp Dron 2.54 GB ↑ 197 ↓ 13

Отзывы
Зарегистрируйтесь чтобы добавить комментарий.
Обратная связь
Copyleft ©