↑↓Torrent.by
Поиск
Логин: Регистрация
Пароль: Восстановить пароль
Загрузка...

Желтый глаз тигра [01-11 из 16] (2018) HDTVRip от GeneralFilm

Скачать zheltyy-glaz-tigra-01-11-iz-16-2018-hdtvrip-ot-generalfilm.torrent
U Магнитная ссылка Размер: 7.50 GB Раздают: 41 Качают: 164 Добавлен: 2018-12-04 04:10:13
Желтый глаз тигра [01-11 из 16] (2018) HDTVRip от GeneralFilm

Оригинальное название: Желтый глаз тигра
Год выпуска: 2018
Жанр:  Боевик, криминал
Выпущено: Россия, Профит
Режиссер: Марк Горобец
В ролях: Павел Прилучный, Карина Андоленко, Роман Курцын, Максим Костромыкин, Виталий Кищенко, Екатерина Буйлова, Иван Ивашкин, Маша Шерстобитова, Светлана Степанковская, Сергей Пускепалис, Евгения Добровольская, Агния Кузнецова, Катерина Шпица, Борис Каморзин, Лариса Шахворостова, Раиса Рязанова, Александра Ребенок, Игорь Филиппов, Юлия Агафонова, Александр Лымарев, Александр Никольский (II), Владимир Чуприков, Максим Глотов, Никита Абдулов, Сергей Друзьяк, Александра Скачкова, Александр Андриенко, Андрей Гусев, Арсений Васильевых, Евгений Мундум

О фильме: 1988 год, Калининград. Четверо лучших друзей отмечают школьный выпускной и делятся планами на будущее, мечтая связать свою жизнь с янтарем. Но янтарный бизнес превращает бывших юных мечтателей в алчных хладнокровных дельцов, не гнушающихся даже воровством и убийствами. Спустя 15 лет одному из героев придется бороться с друзьями юности, чтобы разоблачить преступную сеть и остановить «янтарный беспредел».

Качество: HDTVRip
Видео: XviD, ~ 1800 Кбит/с, 720x304
Аудио: Русский (AC3, 2 ch, 192 Кбит/с)
Продолжительность: 11 х ~ 00:47:00

Релиз:


[+] MI

Общее
Полное имя                               : D:Zheltyj glaz tigra.HDTVRip.GeneralFilm1.Zheltyj glaz tigra.HDTVRip.GeneralFilm.avi
Формат                                   : AVI
Формат/Информация                        : Audio Video Interleave
Размер файла                             : 653 Мбайт
Продолжительность                        : 45 м. 54 с.
Общий поток                              : 1989 Кбит/сек
Программа кодирования                    : VirtualDubMod 1.5.10.3 | www.virtualdub-fr.org || (build 2550/release)
Библиотека кодирования                   : VirtualDubMod build 2550/release

Видео
Идентификатор                            : 0
Формат                                   : MPEG-4 Visual
Профиль формата                          : Advanced Simple@L5
Параметр BVOP формата                    : 1
Параметр QPel формата                    : Нет
Параметр GMC формата                     : Без точки перехода
Параметр матрицы формата                 : Выборочная
Идентификатор кодека                     : XVID
Идентификатор кодека/Подсказка           : XviD
Продолжительность                        : 45 м. 54 с.
Битрейт                                  : 1787 Кбит/сек
Ширина                                   : 720 пикселей
Высота                                   : 304 пикселя
Соотношение сторон                       : 2,35:1
Частота кадров                           : 25,000 кадров/сек
Цветовое пространство                    : YUV
Субдискретизация насыщенности            : 4:2:0
Битовая глубина                          : 8 бит
Тип развёртки                            : Прогрессивная
Метод сжатия                             : С потерями
Бит/(Пиксели*Кадры)                      : 0.327
Размер потока                            : 587 Мбайт (90%)
Библиотека кодирования                   : XviD 1.2.1 (UTC 2008-12-04)

Аудио
Идентификатор                            : 1
Формат                                   : AC-3
Формат/Информация                        : Audio Coding 3
Расширение режима                        : CM (complete main)
Параметр Endianness формата              : Big
Идентификатор кодека                     : 2000
Продолжительность                        : 45 м. 54 с.
Вид битрейта                             : Постоянный
Битрейт                                  : 192 Кбит/сек
Каналы                                   : 2 канала
Расположение каналов                     : Front: L R
Частота                                  : 48,0 КГц
Частота кадров                           : 31,250 кадров/сек (1536 spf)
Битовая глубина                          : 16 бит
Метод сжатия                             : С потерями
Размер потока                            : 63,0 Мбайт (10%)
Выравнивание                             : Разделение по промежуткам
Продолжительность промежутка             : 40  мс. (1,00 видеокадр)
Время предзагрузки промежутка            : 500  мс.




Скриншоты:
[+] Всего файлов в раздаче - 11:
01.Zheltyj glaz tigra.HDTVRip.GeneralFilm.avi653.12 MB
02.Zheltyj glaz tigra.HDTVRip.GeneralFilm.avi693.85 MB
03.Zheltyj glaz tigra.HDTVRip.GeneralFilm.avi681.13 MB
04.Zheltyj glaz tigra.HDTVRip.GeneralFilm.avi739.16 MB
05.Zheltyj glaz tigra.HDTVRip.GeneralFilm.avi692.54 MB
06.Zheltyj glaz tigra.HDTVRip.GeneralFilm.avi721.50 MB
07.Zheltyj glaz tigra.HDTVRip.GeneralFilm.avi703.21 MB
08.Zheltyj glaz tigra.HDTVRip.GeneralFilm.avi705.90 MB
09.Zheltyj glaz tigra.HDTVRip.GeneralFilm.avi710.13 MB
10.Zheltyj glaz tigra.HDTVRip.GeneralFilm.avi694.67 MB
11.Zheltyj glaz tigra.HDTVRip.GeneralFilm.avi685.64 MB

Текущая раздача:
ДатаКомментарии    РазмерПиры
2018-12-04 U Желтый глаз тигра [01-11 из 16] (2018) HDTVRip от GeneralFilm 7.50 GB ↑ 41 ↓ 164

Показать еще раздачи по запросу желтый:
2018-12-08 U Желтый глаз тигра [S01] (2018) HDTVRip от Generalfilm | КПК 2.90 GB ↑ 79 ↓ 89
2018-12-08 U Желтый глаз тигра [S01] (2018) WEBRip от GeneralFilm 8.71 GB ↑ 114 ↓ 150
2018-12-07 U Желтый глаз тигра [S01] (2018) HDTVRip 720p от GeneralFilm 20.13 GB ↑ 76 ↓ 197
2018-12-07 U Желтый глаз тигра [S01] (2018) HDTVRip-AVC от Files-x 11.95 GB ↑ 104 ↓ 204
2018-12-07 U Желтый глаз тигра [S01] (2018) HDTV 1080i от GeneralFilm 33.86 GB ↑ 124 ↓ 323
2018-12-07 U Желтый глаз тигра [S01] (2018) HDTVRip от GeneralFilm 10.83 GB ↑ 70 ↓ 359
2018-12-06 U Жёлтый глаз тигра [01-16 из 16] (2018) SATRip-AVC 10.29 GB ↑ 37 ↓ 41

Отзывы
Зарегистрируйтесь чтобы добавить комментарий.
Обратная связь
Copyleft ©