↑↓Torrent.by
Поиск
Логин: Регистрация
Пароль: Восстановить пароль
Загрузка...

Подводная лодка / Das Boot [01x01-04 из 08] (2018) HDTV 1080i | SDI Media

Скачать podvodnaya-lodka-das-boot-01x01-04-iz-08-2018-hdtv-1080i-sdi-media.torrent
U Магнитная ссылка Размер: 6.82 GB Раздают: 141 Качают: 141 Добавлен: 2018-12-04 18:27:27
Подводная лодка / Das Boot [01x01-04 из 08] (2018) HDTV 1080i | SDI Media

Название: Подводная лодка
Оригинальное название: Das Boot
Год выхода: 2018
Жанр: Драма, военный
Режиссеры: Андреас Прохаска

В ролях: Филип Бирнштиль, Пит Буковски, Джулиус Фельдмайер, Йоахим Ферстер, Леонард Кунц, Бен Мюнхов, Леонард Шайхер, Том Влашиха, Рик Окон, Аугуст Витгенштайн, Йоханнес Хайнрихс, Пьер Кивитт, Райнер Бок, Лиззи Каплан, Джеймс Д`Арси, Франц Динда, Тьерри Фремон, Виктория Хоган, Винсент Картайзер, Штефан Конарске и др.

О сериале: По сюжету действия происходят в 1942 году через несколько месяцев после событий, когда союзникам удалось разгадать код шифровальной машины «Энигма», а на оккупированных территориях развернулась новая волна антинацистского движения. Команде известной субмарины во главе с новым капитаном Клаусом Хоффманом придется пройти через еще более жесткие испытания и военные столкновения. «Подводная лодка» — это история о сложном выборе, выживании, пределах человеческих чувств и жесткой правде жизни во времена бессмысленной войны.

Страна: Германия
Студия: Bavaria Fiction GmbH
Продолжительность: ~01:00:00
Перевод: Профессиональный (многоголосый закадровый) SDI Media
Субтитры: Отсутствуют

Файл
Формат: MKV
Качество: HDTV 1080i

Видео: MPEG-4 AVC, ~ 4000 Кбит/с, 1920x1080
Аудио RUS: 48 kHz, AC3, 2 ch, ~192.00 kbps avg

Релиз группа:


[+] MediaInfo
Общее
Уникальный идентификатор                 : 247263580340815753351351261743977481463 (0xBA053BBD0DB2BF10F80151DEF6B244F7)
Полное имя                               : Das.Boot.S01E01.1080i.HDTV.Rus.EniaHD.mkv
Формат                                   : Matroska
Версия формата                           : Version 4
Размер файла                             : 1,79 Гбайт
Продолжительность                        : 1 ч. 0 м.
Общий поток                              : 4264 Кбит/сек
Дата кодирования                         : UTC 2018-11-25 22:20:40
Программа кодирования                    : mkvmerge v28.2.0 ('The Awakening') 32-bit
Библиотека кодирования                   : libebml v1.3.6 + libmatroska v1.4.9
Обложка                                  : Yes
Attachments                              : cover.das.boot.png

Видео
Идентификатор                            : 1
Формат                                   : AVC
Формат/Информация                        : Advanced Video Codec
Профиль формата                          : High@L4
Настройки формата                        : CABAC / 3 Ref Frames
Параметр CABAC формата                   : Да
Параметр RefFrames формата               : 3 кадра
Параметр GOP формата                     : M=4, N=36
Идентификатор кодека                     : V_MPEG4/ISO/AVC
Продолжительность                        : 1 ч. 0 м.
Битрейт                                  : 4066 Кбит/сек
Ширина                                   : 1920 пикселей
Высота                                   : 1080 пикселей
Соотношение сторон                       : 16:9
Режим частоты кадров                     : Постоянный
Частота кадров                           : 25,000 кадров/сек
Стандарт вещания                         : Component
Цветовое пространство                    : YUV
Субдискретизация насыщенности            : 4:2:0
Битовая глубина                          : 8 бит
Тип развёртки                            : Чересстрочная
Метод сохранения типа развёртки          : Раздельные поля
Порядок развёртки                        : Верхнее поле первое
Бит/(Пиксели*Кадры)                      : 0.078
Размер потока                            : 1,71 Гбайт (95%)
Default                                  : Да
Forced                                   : Нет
Цветовой диапазон                        : Limited
Основные цвета                           : BT.709
Характеристики трансфера                 : BT.709
Коэффициенты матрицы                     : BT.709

Аудио
Идентификатор                            : 2
Формат                                   : AC-3
Формат/Информация                        : Audio Coding 3
Коммерческое название                    : Dolby Digital
Идентификатор кодека                     : A_AC3
Продолжительность                        : 1 ч. 0 м.
Вид битрейта                             : Постоянный
Битрейт                                  : 192 Кбит/сек
Каналы                                   : 2 канала
Channel layout                           : L R
Частота                                  : 48,0 КГц
Частота кадров                           : 31,250 кадров/сек (1536 SPF)
Битовая глубина                          : 16 бит
Метод сжатия                             : С потерями
Размер потока                            : 82,7 Мбайт (5%)
Заголовок                                : AC3 2.0 @ 192 kbps - MVO, SDI Media
Язык                                     : Russian
Default                                  : Да
Forced                                   : Нет



Скриншоты:
[+] Всего файлов в раздаче - 4:
Das.Boot.S01E01.1080i.HDTV.Rus.EniaHD.mkv1.79 GB
Das.Boot.S01E03.1080i.HDTV.Rus.EniaHD.mkv1.73 GB
Das.Boot.S01E02.1080i.HDTV.Rus.EniaHD.mkv1.69 GB
Das.Boot.S01E04.1080i.HDTV.Rus.EniaHD.mkv1.61 GB

Текущая раздача:
ДатаКомментарии    РазмерПиры
2018-12-04 U Подводная лодка / Das Boot [01x01-04 из 08] (2018) HDTV 1080i | SDI Media 6.82 GB ↑ 141 ↓ 141

Похожие раздачи по запросу - подводная:
2018-12-10 U Подводная лодка / Das Boot [01x01-06 из 08] (2018) HDTVRip | SDI Media 4.36 GB ↑ 112 ↓ 126
2018-12-04 U Подводная лодка / Das Boot [01x01-04 из 08] (2018) HDTVRip | SDI Media 2.91 GB ↑ 125 ↓ 83
2018-08-20 U Подводная война: чудовища из глубины (2018) SATRip 1.22 GB ↑ 79 ↓ 43
2013-11-16 U Подводная лодка / Das Boot (1981) BDRip-AVC | Director`s Cut 4.37 GB ↑ 54 ↓ 50
2013-10-16 U Лодка / Подводная лодка / Подлодка / Das Boot (1981) BDRip 2К2.18 GB ↑ 113 ↓ 8

Отзывы
Зарегистрируйтесь чтобы добавить комментарий.
Обратная связь
Copyleft ©