↑↓Torrent.by
Поиск
Логин: Регистрация
Пароль: Восстановить пароль
Загрузка...

Веном / Venom (2018) WEBRip 1080p | D | Звук с TS

Скачать venom-2018-webrip-1080p-d-zvuk-s-ts.torrent
U Магнитная ссылка Размер: 11.76 GB Раздают: 286 Качают: 202 Добавлен: 2018-12-05 08:12:58
Веном / Venom (2018) WEBRip 1080p | D | Звук с TS

Название: Веном
Оригинальное название: Venom
Год выхода: 2018
Жанр: ужасы, фантастика, боевик, триллер

Режиссер: Рубен Фляйшер

В ролях: Том Харди, Мишель Уильямс, Марчелла Браджио, Вуди Харрельсон, Дженни Слейт, Риз Ахмед, Мак Брандт, Рон Сепас Джонс, Мишель Ли, Мелора Уолтерс

О фильме:
Что если в один прекрасный день в тебя вселяется существо-симбиот, которое наделяет тебя сверхчеловеческими способностями? Вот только Веном — симбиот совсем недобрый, и договориться с ним невозможно. Хотя нужно ли договариваться?.. Ведь в какой-то момент ты понимаешь, что быть плохим вовсе не так уж и плохо. Так даже веселее. В мире и так слишком много супергероев! Мы — Веном!

Страна: США
Продолжительность: 01:47:10
Перевод: Профессиональный (дублированный) | Звук с TS

Файл
Кодек: x.264
Качество: WEBRip 1080p
Видео: AVC, 1920x800 (2.40:1), 23.976 fps, 15.1 Mb/s
Аудио #1: AC-3, 48.0 kHz, 2 ch, 192 kb/s | RUS [DUB (TS)]
Аудио #2: AC-3, 48.0 kHz, 2 ch, 192 kb/s | UKR [DUB (Line)]
Аудио #3: AC-3, 48.0 kHz, 2 ch, 192 kb/s | ENG [Original]
Субтитры: английские

Семпл

| Рекламы нет !


[+] MI
General
Unique ID                                : 242438878423392426816508746526203806667 (0xB66407918062C080A874C0548C1783CB)
Complete name                            : Venom.2018.1080p.WEBRip.Dt.mkv
Format                                   : Matroska
Format version                           : Version 4
File size                                : 11.8 GiB
Duration                                 : 1 h 47 min
Overall bit rate                         : 15.7 Mb/s
Encoded date                             : UTC 2018-12-04 16:41:55
Writing application                      : mkvmerge v8.3.0 ('Over the Horizon') 64bit
Writing library                          : libebml v1.3.1 + libmatroska v1.4.2

Video
ID                                       : 1
Format                                   : AVC
Format/Info                              : Advanced Video Codec
Format profile                           : High@L4.1
Format settings                          : CABAC / 4 Ref Frames
Format settings, CABAC                   : Yes
Format settings, ReFrames                : 4 frames
Codec ID                                 : V_MPEG4/ISO/AVC
Duration                                 : 1 h 47 min
Bit rate                                 : 15.1 Mb/s
Nominal bit rate                         : 16.0 Mb/s
Width                                    : 1 920 pixels
Height                                   : 800 pixels
Display aspect ratio                     : 2.40:1
Frame rate mode                          : Constant
Frame rate                               : 23.976 (24000/1001) FPS
Color space                              : YUV
Chroma subsampling                       : 4:2:0
Bit depth                                : 8 bits
Scan type                                : Progressive
Bits/(Pixel*Frame)                       : 0.411
Stream size                              : 11.3 GiB (96%)
Writing library                          : x264 core 142 r2479 dd79a61
Encoding settings                        : cabac=1 / ref=1 / deblock=1:0:0 / analyse=0x3:0x113 / me=hex / subme=2 / psy=1 / psy_rd=1.00:0.00 / mixed_ref=0 / me_range=16 / chroma_me=1 / trellis=0 / 8x8dct=1 / cqm=0 / deadzone=21,11 / fast_pskip=1 / chroma_qp_offset=0 / threads=18 / lookahead_threads=6 / sliced_threads=0 / nr=0 / decimate=1 / interlaced=0 / bluray_compat=0 / constrained_intra=0 / bframes=3 / b_pyramid=2 / b_adapt=1 / b_bias=0 / direct=1 / weightb=1 / open_gop=0 / weightp=1 / keyint=240 / keyint_min=24 / scenecut=40 / intra_refresh=0 / rc_lookahead=10 / rc=abr / mbtree=1 / bitrate=16000 / ratetol=1.0 / qcomp=0.60 / qpmin=0 / qpmax=69 / qpstep=4 / vbv_maxrate=62500 / vbv_bufsize=78125 / nal_hrd=none / filler=0 / ip_ratio=1.40 / aq=1:1.00
Default                                  : Yes
Forced                                   : No
Color range                              : Limited
Color primaries                          : BT.709
Transfer characteristics                 : BT.709
Matrix coefficients                      : BT.709

Audio #1
ID                                       : 2
Format                                   : AC-3
Format/Info                              : Audio Coding 3
Commercial name                          : Dolby Digital
Codec ID                                 : A_AC3
Duration                                 : 1 h 47 min
Bit rate mode                            : Constant
Bit rate                                 : 192 kb/s
Channel(s)                               : 2 channels
Channel layout                           : L R
Sampling rate                            : 48.0 kHz
Frame rate                               : 31.250 FPS (1536 SPF)
Bit depth                                : 16 bits
Compression mode                         : Lossy
Stream size                              : 147 MiB (1%)
Title                                    : TS
Language                                 : Russian
Service kind                             : Complete Main
Default                                  : Yes
Forced                                   : No

Audio #2
ID                                       : 3
Format                                   : AC-3
Format/Info                              : Audio Coding 3
Commercial name                          : Dolby Digital
Codec ID                                 : A_AC3
Duration                                 : 1 h 47 min
Bit rate mode                            : Constant
Bit rate                                 : 192 kb/s
Channel(s)                               : 2 channels
Channel layout                           : L R
Sampling rate                            : 48.0 kHz
Frame rate                               : 31.250 FPS (1536 SPF)
Bit depth                                : 16 bits
Compression mode                         : Lossy
Stream size                              : 147 MiB (1%)
Title                                    : LeDoyen
Language                                 : Ukrainian
Service kind                             : Complete Main
Default                                  : No
Forced                                   : No

Audio #3
ID                                       : 4
Format                                   : AC-3
Format/Info                              : Audio Coding 3
Commercial name                          : Dolby Digital
Codec ID                                 : A_AC3
Duration                                 : 1 h 47 min
Bit rate mode                            : Constant
Bit rate                                 : 192 kb/s
Channel(s)                               : 2 channels
Channel layout                           : L R
Sampling rate                            : 48.0 kHz
Frame rate                               : 31.250 FPS (1536 SPF)
Bit depth                                : 16 bits
Compression mode                         : Lossy
Stream size                              : 147 MiB (1%)
Language                                 : English
Service kind                             : Complete Main
Default                                  : No
Forced                                   : No

Text
ID                                       : 5
Format                                   : UTF-8
Codec ID                                 : S_TEXT/UTF8
Codec ID/Info                            : UTF-8 Plain Text
Duration                                 : 1 h 34 min
Bit rate                                 : 63 b/s
Count of elements                        : 1360
Stream size                              : 44.4 KiB (0%)
Language                                 : English
Default                                  : No
Forced                                   : No



Скриншоты:
[+] Всего файлов в раздаче - 1:
Venom.2018.1080p.WEBRip.Dt.mkv11.76 GB

Текущая раздача:
ДатаКомментарии    РазмерПиры
2018-12-05 U Веном / Venom (2018) WEBRip 1080p | D | Звук с TS 11.76 GB ↑ 286 ↓ 202

Показать еще раздачи по запросу веном:
Сегодня U Веном / Venom (2018) BDRip-HEVC 1080p от | HDRezka Studio 5.78 GB ↑ 35 ↓ 39
2018-12-11 U Веном / Venom (2018) BDRip 720p от HELLYWOOD | HDRezka Studio 4.18 GB ↑ 107 ↓ 77
2018-12-10 U Веном / Venom (2018) BDRip-AVC от HELLYWOOD | HDRezka Studio 1.98 GB ↑ 1262 ↓ 455
2018-12-10 U Веном / Venom (2018) BDRemux 1080p от селезень | HDRezka Studio 26.72 GB ↑ 110 ↓ 213
2018-12-09 U Веном / Venom (2018) HDRip от Scarabey | HDRezka Studio 746.15 MB ↑ 182 ↓ 42
2018-12-09 U Веном / Venom (2018) UHD BDRemux 2160p от селезень | 4K | HDR | HDRezka Studio 45.10 GB ↑ 230 ↓ 533
2018-12-09 U Веном / Venom (2018) HDRip-AVC от ExKinoRay | HDRezka Studio 1.45 GB ↑ 303 ↓ 102

Отзывы
Зарегистрируйтесь чтобы добавить комментарий.
Обратная связь
Copyleft ©