↑↓Torrent.by
Поиск
Логин: Регистрация
Пароль: Восстановить пароль
Загрузка...

Русалка. Озеро мертвых (2018) BDRip 720p от ExKinoRay | GER Transfer | Лицензия

Скачать rusalka-ozero-mertvyh-2018-bdrip-720p-ot-exkinoray-ger-transfer-licenziya.torrent
U Магнитная ссылка Размер: 2.89 GB Раздают: 95 Качают: 33 Добавлен: 2018-12-05 08:13:06
Русалка. Озеро мертвых (2018) BDRip 720p от ExKinoRay | GER Transfer | Лицензия

Информация о фильме
Название: Русалка. Озеро мертвых
Год выхода: 2018
Жанр: фэнтези, ужасы
Режиссер: Святослав Подгаевский
В ролях: Виктория Агалакова, Ефим Петрунин, Никита Еленев, Сесиль Плеже, Игорь Хрипунов, Софья Шидловская, Дарья Ярцева, Дмитрий Ярцев, Алла Артамонова, Эмиль Салес

О фильме:
Встреча со странной девушкой на затерянном лесном озере и её поцелуй резко меняют жизнь Ромы. Об этой встрече он очень скоро пожалеет: неизвестный недуг высасывает из него все жизненные силы. Марина готова на всё, чтобы освободить жениха от мистического морока. Что окажется сильнее: проклятье прошлого или настоящая любовь?

Страна: Россия
Студия: СТГ Синема, QS FILMS, Централ Партнершип, Киностудия КИТ
Продолжительность: 01:26:59
Язык: Русский | Лицензия BD GER

Формат: MKV
Качество: BDRip 720p
Видео: MPEG-4 AVC, 1280x536 (2.40:1), 23.976 fps, 4130 Kbps, 0.251 bit/pixel
Звук:
Аудио: 48 kHz, AC3, 5.1, 640 Kbps | RUS |

Релиз:

Автор релиза:


[+] МИ
General
Unique ID                                : 237562563575884245915667218967865763729 (0xB2B8E2AF2F7F82DAA181C7E6E496A791)
Complete name                            : D:The.Mermaid.Lake.of.the.Dead.2018.BDRip.720p.ExKinoRay.mkv
Format                                   : Matroska
Format version                           : Version 2
File size                                : 2.89 GiB
Duration                                 : 1 h 26 min
Overall bit rate                         : 4 753 kb/s
Movie name                               : The Mermaid Lake of the Dead 2018 from ExKinoRay
Encoded date                             : UTC 2018-12-04 11:57:49
Writing application                      : mkvmerge v5.6.0 ('Kenya Kane') built on May 27 2012 16:44:04
Writing library                          : libebml v1.2.3 + libmatroska v1.3.0

Video
ID                                       : 1
Format                                   : AVC
Format/Info                              : Advanced Video Codec
Format profile                           : High@L4.1
Format settings, CABAC                   : Yes
Format settings, ReFrames                : 12 frames
Codec ID                                 : V_MPEG4/ISO/AVC
Duration                                 : 1 h 26 min
Bit rate                                 : 4 130 kb/s
Width                                    : 1 280 pixels
Height                                   : 536 pixels
Display aspect ratio                     : 2.40:1
Frame rate mode                          : Constant
Frame rate                               : 23.976 (23976/1000) FPS
Color space                              : YUV
Chroma subsampling                       : 4:2:0
Bit depth                                : 8 bits
Scan type                                : Progressive
Bits/(Pixel*Frame)                       : 0.251
Stream size                              : 2.44 GiB (85%)
Title                                    : Enigma
Writing library                          : x264 core 152 r2851 ba24899
Encoding settings                        : cabac=1 / ref=12 / deblock=1:-2:-2 / analyse=0x3:0x113 / me=umh / subme=10 / psy=1 / psy_rd=1.05:0.10 / mixed_ref=1 / me_range=32 / chroma_me=1 / trellis=2 / 8x8dct=1 / cqm=0 / deadzone=21,11 / fast_pskip=0 / chroma_qp_offset=-3 / threads=12 / lookahead_threads=3 / sliced_threads=0 / nr=0 / decimate=0 / interlaced=0 / bluray_compat=0 / constrained_intra=0 / bframes=10 / b_pyramid=2 / b_adapt=2 / b_bias=0 / direct=3 / weightb=1 / open_gop=0 / weightp=2 / keyint=240 / keyint_min=23 / scenecut=40 / intra_refresh=0 / rc=2pass / mbtree=0 / bitrate=4130 / ratetol=1.0 / qcomp=0.60 / qpmin=0 / qpmax=51 / qpstep=4 / cplxblur=20.0 / qblur=0.5 / ip_ratio=1.30 / pb_ratio=1.20 / aq=1:1.00
Language                                 : English
Default                                  : Yes
Forced                                   : No
Color range                              : Limited
Color primaries                          : BT.709
Transfer characteristics                 : BT.709
Matrix coefficients                      : BT.709

Audio
ID                                       : 2
Format                                   : AC-3
Format/Info                              : Audio Coding 3
Mode extension                           : CM (complete main)
Format settings, Endianness              : Big
Codec ID                                 : A_AC3
Duration                                 : 1 h 26 min
Bit rate mode                            : Constant
Bit rate                                 : 640 kb/s
Channel(s)                               : 6 channels
Channel positions                        : Front: L C R, Side: L R, LFE
Sampling rate                            : 48.0 kHz
Frame rate                               : 31.250 FPS (1536 spf)
Compression mode                         : Lossy
Stream size                              : 398 MiB (13%)
Title                                    : Blu-ray
Language                                 : Russian
Default                                  : Yes
Forced                                   : No

Menu
00:00:00.000                             : :Глава 01
00:04:59.466                             : :Глава 02
00:14:02.091                             : :Глава 03
00:21:24.617                             : :Глава 04
00:29:42.823                             : :Глава 05
00:37:02.303                             : :Глава 06
00:45:11.125                             : :Глава 07
00:54:12.416                             : :Глава 08
00:59:30.400                             : :Глава 09
01:05:23.628                             : :Глава 10
01:13:29.989                             : :Глава 11
01:19:06.241                             : :Глава 12




Скриншоты:
[+] Всего файлов в раздаче - 1:
The.Mermaid.Lake.of.the.Dead.2018.BDRip.720p.ExKinoRay.mkv2.89 GB

Текущая раздача:
ДатаКомментарии    РазмерПиры
2018-12-05 U Русалка. Озеро мертвых (2018) BDRip 720p от ExKinoRay | GER Transfer | Лицензия 1 К 2.89 GB ↑ 95 ↓ 33

Похожие раздачи по запросу - русалка:
2018-12-04 U Русалка. Озеро мертвых (2018) BDRip от MegaPeer | GER Transfer | Лицензия 1.46 GB ↑ 290 ↓ 93
2016-05-05 U Русалка / Mei ren yu (2016) WEBRip | L1 1.45 GB ↑ 244 ↓ 125

Отзывы
pelya
Хорошее, атмосферное кино, местами жутковатое.
Радует родная русская речь русалки)

Зарегистрируйтесь чтобы добавить комментарий.
Обратная связь
Copyleft ©