↑↓Torrent.by
Поиск
Логин: Регистрация
Пароль: Восстановить пароль
Загрузка...

Голубая игуана / Blue Iguana (2018) BDRemux 1080p | iTunes

Скачать golubaya-iguana-blue-2018-bdremux-1080p-itunes.torrent
U Магнитная ссылка Размер: 25.57 GB Раздают: 73 Качают: 35 Добавлен: 2018-12-06 06:40:16
Голубая игуана / Blue Iguana (2018) BDRemux 1080p | iTunes

Название: Голубая игуана  
Оригинальное название: Blue Iguana
Год выхода: 2018
Жанр: Триллер, мелодрама, комедия
Режиссер: Хади Хаджэйг
В ролях: Сэм Рокуэлл, Бен Шварц, Саймон Кэллоу, Аманда Донохью, Фрэнсис Барбер, Фиби Фокс, Аль Уивер, Питер Фердинандо, Дженни Беде, Энтон Саундерс

О фильме:
Мелкие мошенники Эдди и Пол досрочно выходят из тюрьмы и устраиваются на работу в нью-йоркское кафе. Казалось, им не светит уже ничего интересного в этой жизни. Но однажды к ним в забегаловку заглядывает авантюристка Кэтрин Руквуд. Она уговаривает парней отправиться в Лондон и украсть уникальный бриллиант — «Голубую игуану».

Страна: Великобритания
Студия: UK Film Studio Productions
Продолжительность: 01:41:09
Перевод: Дублированный | iTunes

Файл
Качество: BDRemux 1080p
Формат: MKV
Кодек: MPEG-4 AVC
Видео: 1920x1080 (16:9), 23,976 fps, MPEG-4 AVC ~ 31,2 Мbps avg, 0.627 bit/pixel
Аудио: AC3, 48 kHz, 6 ch, ~384.00 kbps avg | русский |iTunes
Аудио: TrueHD, 48 kHz, 6 ch, ~3917.00 kbps avg | английский | Оригинал
Аудио: AC3, 48 kHz, 6 ch, ~640.00 kbps avg | английский | Оригинал

Субтитры: Английские (Full)
Семпл


[+] Инфо-файл
Общее
Уникальный идентификатор                 : 115008230887502715942736975075383416277 (0x5685C792033488C436661D9AF16395D5)
Полное имя                               : D:TorrentsЗавершенные0Blue.Iguana.2018.1080p.BluRay.REMUX.AVC.DD5.1.Rus.Eng.mkv
Формат                                   : Matroska
Версия формата                           : Version 4 / Version 2
Размер файла                             : 25,6 Гбайт
Продолжительность                        : 1 ч. 41 м.
Режим общего битрейта                    : Переменный
Общий поток                              : 36,2 Мбит/сек
Название фильма                          : Blue.Iguana.2018.1080p.BluRay.REMUX.AVC.DD5.1.Rus.Eng
Дата кодирования                         : UTC 2018-12-05 07:18:27
Программа кодирования                    : mkvmerge v27.0.0 ('Metropolis') 64-bit
Библиотека кодирования                   : libebml v1.3.6 + libmatroska v1.4.9

Видео
Идентификатор                            : 1
Формат                                   : AVC
Формат/Информация                        : Advanced Video Codec
Профиль формата                          : High@L4.1
Настройки формата                        : CABAC / 4 Ref Frames
Параметр CABAC формата                   : Да
Параметр RefFrames формата               : 4 кадра
Идентификатор кодека                     : V_MPEG4/ISO/AVC
Продолжительность                        : 1 ч. 41 м.
Вид битрейта                             : Переменный
Битрейт                                  : 31,2 Мбит/сек
Максимальный битрейт                     : 35,0 Мбит/сек
Ширина                                   : 1920 пикселей
Высота                                   : 1080 пикселей
Соотношение сторон                       : 16:9
Режим частоты кадров                     : Постоянный
Частота кадров                           : 23,976 (24000/1001) кадра/сек
Стандарт вещания                         : NTSC
Цветовое пространство                    : YUV
Субдискретизация насыщенности            : 4:2:0
Битовая глубина                          : 8 бит
Тип развёртки                            : Прогрессивная
Бит/(Пиксели*Кадры)                      : 0.627
Размер потока                            : 22,0 Гбайт (86%)
Заголовок                                : Blue.Iguana.2018.1080p.BluRay.REMUX.AVC.DD5.1.Rus.Eng
Язык                                     : English
Default                                  : Нет
Forced                                   : Нет
Цветовой диапазон                        : Limited
Основные цвета                           : BT.709
Характеристики трансфера                 : BT.709
Коэффициенты матрицы                     : BT.709

Аудио #1
Идентификатор                            : 2
Формат                                   : AC-3
Формат/Информация                        : Audio Coding 3
Идентификатор кодека                     : A_AC3
Продолжительность                        : 1 ч. 40 м.
Вид битрейта                             : Постоянный
Битрейт                                  : 384 Кбит/сек
Каналы                                   : 6 каналов
Расположение каналов                     : Front: L C R, Side: L R, LFE
Частота                                  : 48,0 КГц
Частота кадров                           : 31,250 кадров/сек (1536 SPF)
Битовая глубина                          : 16 бит
Метод сжатия                             : С потерями
Размер потока                            : 277 Мбайт (1%)
Заголовок                                : iTunes | KAZTORKA
Язык                                     : Russian
Default                                  : Да
Forced                                   : Да

Аудио #2
Идентификатор                            : 3
Формат                                   : TrueHD
Идентификатор кодека                     : A_TRUEHD
Продолжительность                        : 1 ч. 41 м.
Вид битрейта                             : Переменный
Битрейт                                  : 3917 Кбит/сек
Максимальный битрейт                     : 5229 Кбит/сек
Каналы                                   : 6 каналов
Расположение каналов                     : Front: L C R, Side: L R, LFE
Частота                                  : 48,0 КГц
Частота кадров                           : 1200,000 кадров/сек (40 SPF)
Метод сжатия                             : Без потерь
Размер потока                            : 2,77 Гбайт (11%)
Заголовок                                : Original
Язык                                     : English
Default                                  : Нет
Forced                                   : Нет

Аудио #3
Идентификатор                            : 4
Формат                                   : AC-3
Формат/Информация                        : Audio Coding 3
Идентификатор кодека                     : A_AC3
Продолжительность                        : 1 ч. 41 м.
Вид битрейта                             : Постоянный
Битрейт                                  : 640 Кбит/сек
Каналы                                   : 6 каналов
Расположение каналов                     : Front: L C R, Side: L R, LFE
Частота                                  : 48,0 КГц
Частота кадров                           : 31,250 кадров/сек (1536 SPF)
Битовая глубина                          : 16 бит
Метод сжатия                             : С потерями
Размер потока                            : 463 Мбайт (2%)
Заголовок                                : Original
Язык                                     : English
Default                                  : Нет
Forced                                   : Нет

Текст
Идентификатор                            : 5
Формат                                   : UTF-8
Идентификатор кодека                     : S_TEXT/UTF8
Идентификатор кодека/Информация          : UTF-8 Plain Text
Продолжительность                        : 1 ч. 37 м.
Битрейт                                  : 71 бит/сек
ElementCount                             : 1756
Размер потока                            : 50,8 Кбайт (0%)
Заголовок                                : Full
Язык                                     : English
Default                                  : Да
Forced                                   : Нет

Меню
00:00:00.000                             : en:Chapter 01
00:14:04.802                             : en:Chapter 02
00:28:22.409                             : en:Chapter 03
00:42:19.703                             : en:Chapter 04
00:55:31.286                             : en:Chapter 05
01:08:18.302                             : en:Chapter 06
01:21:13.243                             : en:Chapter 07
01:38:31.697                             : en:Chapter 08




Скриншоты:
[+] Всего файлов в раздаче - 1:
Blue.Iguana.2018.1080p.BluRay.REMUX.AVC.DD5.1.Rus.Eng.mkv25.57 GB

Текущая раздача:
ДатаКомментарии    РазмерПиры
2018-12-06 U Голубая игуана / Blue Iguana (2018) BDRemux 1080p | iTunes 25.57 GB ↑ 73 ↓ 35

Показать еще раздачи по запросу голубая:
2018-12-08 U Голубая игуана / Blue Iguana (2018) BDRip 720p от селезень | iTunes 4.96 GB ↑ 124 ↓ 63
2018-12-06 U Голубая игуана / Blue Iguana (2018) BDRip-AVC от OlLanDGroup | iTunes 1.97 GB ↑ 107 ↓ 43
2018-12-06 U Голубая игуана / Blue Iguana (2018) BDRip от MegaPeer | iTunes 1.42 GB ↑ 158 ↓ 49
2018-09-01 U Голубая игуана / Blue Iguana (2018) WEB-DLRip-AVC | Локализованная версия | iTunes 744.61 MB ↑ 103 ↓ 33
2018-09-01 U Голубая игуана / Blue Iguana (2018) WEB-DLRip-AVC от OlLanDGroup | iTunes 1.46 GB ↑ 91 ↓ 39
2018-01-14 U BBC: Голубая планета 2 / Blue Planet II [S01] (2017) BDRip 1080p | P1, L, L1 40.02 GB ↑ 60 ↓ 162
2018-01-07 U BBC. Голубая планета 2 / Blue Planet II [S01] (2017) WEBRip 720p | ColdFilm 12.00 GB ↑ 120 ↓ 55

Отзывы
Зарегистрируйтесь чтобы добавить комментарий.
Обратная связь
Copyleft ©