↑↓Torrent.by
Поиск
Логин: Регистрация
Пароль: Восстановить пароль
Загрузка...

Оцепеневшие от страха / Aterrados (2018) WEB-DLRip | iTunes

Скачать ocepenevshie-ot-straha-aterrados-2018-web-dlrip-itunes.torrent
U Магнитная ссылка Размер: 1.46 GB Раздают: 525 Качают: 256 Добавлен: 2018-12-06 15:51:46
Оцепеневшие от страха / Aterrados (2018) WEB-DLRip | iTunes

Название: Оцепеневшие от страха
Оригинальное название: Aterrados
Год выхода: 2018
Жанр: Ужасы
Страна: Аргентина
Перевод: Дублированный | iTunes
Продолжительность: 01:27:41
Режиссер: Демиан Рунья
В ролях: Максимилиано Гионе, Норберто Гонсало, Эльвира Онетто, Агустин Риттано, Демиан Саломон, Джордж Л. Льюис, Джульета Валлина, Арьель Чаваррия, Уго Албрич, Наталия Сеньоралес и др.

О фильме: Леденящие душу жуткие события сотрясают пригородное местечко, где соседствуют три уютных домика. Неведомая и невидимая сила зверски убивает женщину на глазах мужа. Ночью у кровати его соседа появляется ужасный монстр. А мальчик из дома напротив, погибший под колесами автомобиля, возвращается с кладбища и садится за кухонный стол. Искать причину необъяснимых кошмаров берутся три специалиста по паранормальным явлениям и детектив из отдела по расследованию убийств.

Файл
Формат: AVI
Качество: WEB-DLRip
Видео: Xvid 73, 720x320, ~1982 kbps, 24,000 fps
Звук: русский, AC3, 5.1 ch, 48 kHz, 384 kbps | iTunes
Субтитры: нет


[+] MI
General
Полное имя                               : F:TorrentAterradosWEB-DLRip.avi
Формат                                   : AVI
Формат/Информация                        : Audio Video Interleave
Профиль формата                          : OpenDML
Размер файла                             : 1.46 GiB
Продолжительность                        : 1 h 27 min
Общий поток                              : 2 377 kb/s
Программа кодирования                    : XviD4PSP 6.0 / 54.27.101

Video
Идентификатор                            : 0
Формат                                   : MPEG-4 Visual
Профиль формата                          : Advanced Simple@L5
Настройки формата                        : BVOP2 / Custom Matrix
Параметр BVOP формата                    : 2
Параметр QPel формата                    : No
Параметр GMC формата                     : No warppoints
Параметр матрицы формата                 : Custom
Идентификатор кодека                     : XVID
Идентификатор кодека/Подсказка           : XviD
Продолжительность                        : 1 h 27 min
Битрейт                                  : 1 982 kb/s
Ширина                                   : 720 pixels
Высота                                   : 320 pixels
Соотношение сторон                       : 2.25:1
Частота кадров                           : 24.000 FPS
Цветовое пространство                    : YUV
Субдискретизация насыщенности            : 4:2:0
Битовая глубина                          : 8 bits
Тип развёртки                            : Progressive
Метод сжатия                             : Lossy
Бит/(Пиксели*Кадры)                      : 0.358
Размер потока                            : 1.21 GiB (83%)
Библиотека кодирования                   : XviD 73

Audio
Идентификатор                            : 1
Формат                                   : AC-3
Формат/Информация                        : Audio Coding 3
Идентификатор кодека                     : 2000
Продолжительность                        : 1 h 27 min
Вид битрейта                             : Constant
Битрейт                                  : 384 kb/s
Каналы                                   : 6 channels
Расположение каналов                     : Front: L C R, Side: L R, LFE
Частота                                  : 48.0 kHz
Частота кадров                           : 31.250 FPS (1536 SPF)
Битовая глубина                          : 16 bits
Метод сжатия                             : Lossy
Размер потока                            : 241 MiB (16%)
Выравнивание                             : Aligned on interleaves
Продолжительность промежутка             : 32  ms (0.77 video frame)




Скриншоты:
[+] Всего файлов в раздаче - 1:
AterradosWEB-DLRip.avi1.46 GB

Текущая раздача:
ДатаКомментарии    РазмерПиры
2018-12-06 U Оцепеневшие от страха / Aterrados (2018) WEB-DLRip | iTunes 1.46 GB ↑ 525 ↓ 256

Похожие раздачи по запросу - оцепеневшие:
2018-12-11 U Оцепеневшие от страха / Aterrados (2018) WEB-DLRip-AVC от OlLanDGroup | iTunes 1.41 GB ↑ 68 ↓ 21
2018-12-06 U Оцепеневшие от страха / Aterrados (2018) WEB-DL 1080p | iTunes 3.07 GB ↑ 557 ↓ 303

Отзывы
Зарегистрируйтесь чтобы добавить комментарий.
Обратная связь
Copyleft ©