↑↓Torrent.by
Поиск
Логин: Регистрация
Пароль: Восстановить пароль
Загрузка...

Подбросы (2018) WEB-DL 1080p | iTunes

Скачать podbrosy-2018-web-dl-1080p-itunes.torrent
U Магнитная ссылка Размер: 3.20 GB Раздают: 300 Качают: 55 Добавлен: 2018-12-07 06:21:28
Подбросы (2018) WEB-DL 1080p | iTunes

Название: Подбросы
Год выпуска: 2018
Жанр:  Драма
Режиссер: Иван Твердовский (II)
В ролях: Денис Власенко, Анна Слю, Данил Стеклов, Павел Чинарёв, Вильма Кутавичюте, Александра Урсуляк, Максим Виторган, Александр Золотовицкий, Данила Ариков, Елена Коробанова

О фильме:
Брошенный в младенчестве, Денис вырос и превратился в юношу с уникальной способностью не чувствовать боли. Внезапно жизнь молодого человека кардинально меняется: его находит мать и увозит жить в Москву. Она окружает Дениса заботой, вниманием, играет роль задушевной подружки и вводит юношу в загадочную среду столичных мошенников и коррупционеров. Ради материнской любви доверчивый паренек готов стать участником рискованной авантюры «сильных мира сего».

Страна: Россия, Ирландия, Литва, Франция
Студия: Arizona Productions, F&ME, «Компания Новые люди» при поддержке Министерства культуры РФ
Продолжительность: 01:23:09
Язык: Русский | iTunes

Файл
Формат: MKV
Качество: WEB-DL 1080p
Видео: MPEG-4 AVC, 5116 Кбит/с, 1920x804, 25,000 fps
Аудио: AC-3, 6 ch, 384 Кбит/с, 48,0 KHz [RUS]
Субтитры: Нет


[+] M/I
Общее
Уникальный идентификатор                 : 209352035718358089328872612659427906720 (0x9D7FBC46819EC604B1B474889B7594A0)
Полное имя                               : E:ПодбросыPodbrosy.2018.O.WEB-DL.1080p.mkv
Формат                                   : Matroska
Версия формата                           : Version 2
Размер файла                             : 3,20 Гбайт
Продолжительность                        : 1 ч. 23 м.
Общий поток                              : 5501 Кбит/сек
Название фильма                          : Podbrosy.2018.WEB-DL.(1080p).Getty
Дата кодирования                         : UTC 2018-12-06 06:49:32
Программа кодирования                    : mkvmerge v8.3.0 ('Over the Horizon') 64bit
Библиотека кодирования                   : libebml v1.3.1 + libmatroska v1.4.2

Видео
Идентификатор                            : 1
Формат                                   : AVC
Формат/Информация                        : Advanced Video Codec
Профиль формата                          : High@L4
Параметр CABAC формата                   : Да
Параметр ReFrames формата                : 4 кадра
Идентификатор кодека                     : V_MPEG4/ISO/AVC
Продолжительность                        : 1 ч. 23 м.
Битрейт                                  : 5116 Кбит/сек
Ширина                                   : 1920 пикселей
Высота                                   : 804 пикселя
Соотношение сторон                       : 2,40:1
Режим частоты кадров                     : Постоянный
Частота кадров                           : 25,000 кадров/сек
Цветовое пространство                    : YUV
Субдискретизация насыщенности            : 4:2:0
Битовая глубина                          : 8 бит
Тип развёртки                            : Прогрессивная
Бит/(Пиксели*Кадры)                      : 0.133
Размер потока                            : 2,97 Гбайт (93%)
Язык                                     : Russian
Default                                  : Да
Forced                                   : Нет

Аудио
Идентификатор                            : 2
Формат                                   : AC-3
Формат/Информация                        : Audio Coding 3
Параметр Endianness формата              : Big
Идентификатор кодека                     : A_AC3
Продолжительность                        : 1 ч. 23 м.
Вид битрейта                             : Постоянный
Битрейт                                  : 384 Кбит/сек
Каналы                                   : 6 каналов
Расположение каналов                     : Front: L C R, Side: L R, LFE
Частота                                  : 48,0 КГц
Частота кадров                           : 31,250 кадров/сек (1536 spf)
Битовая глубина                          : 16 бит
Метод сжатия                             : С потерями
Размер потока                            : 228 Мбайт (7%)
Язык                                     : Russian
ServiceKind/Str/ing                       : Complete Main
Default                                  : Да
Forced                                   : Нет



Скриншоты:
[+] Всего файлов в раздаче - 1:
Podbrosy.2018.O.WEB-DL.1080p.mkv3.20 GB

Текущая раздача:
ДатаКомментарии    РазмерПиры
2018-12-07 U Подбросы (2018) WEB-DL 1080p | iTunes 3.20 GB ↑ 300 ↓ 55

Похожие раздачи по запросу - подбросы:
2018-12-07 U Подбросы (2018) WEB-DLRip-AVC 1.58 GB ↑ 129 ↓ 31
2018-12-06 U Подбросы (2018) WEB-DLRip от MegaPeer | iTunes 1.46 GB ↑ 411 ↓ 233

Отзывы
Зарегистрируйтесь чтобы добавить комментарий.
Обратная связь
Copyleft ©