↑↓Torrent.by
Поиск
Логин: Регистрация
Пароль: Восстановить пароль
Загрузка...

СуперБобровы. Народные мстители (2017) WEB-DLRip от GeneralFilm | iTunes

Скачать superbobrovy-narodnye-mstiteli-2017-web-dlrip-ot-generalfilm-itunes.torrent
U Магнитная ссылка Размер: 744.62 MB Раздают: 116 Качают: 32 Добавлен: 2018-12-07 06:22:06
СуперБобровы. Народные мстители (2017) WEB-DLRip от GeneralFilm | iTunes

Год выпуска: 2017
Жанр:  Комедия, семейный
Выпущено: Россия, KeyStone Production, Yellow, Black and White
Режиссер: Дмитрий Дьяченко
В ролях: Павел Деревянко, Роман Мадянов, Владимир Толоконников, Оксана Акиньшина, Ирина Пегова, Даниил Вахрушев, Елена Валюшкина, Роман Курцын, Стас Оксаний, Владимир Паршенков

О фильме: Действие картины начинается в Таиланде, где семья Бобровых скрылась от правосудия. Теперь им приходится выступать в цирке-шапито, демонстрируя туристам свои суперспособности. Быть «цирковыми обезьянками» семейству явно не по душе - все хотят домой, на Родину. У Олега и Светы разлад в отношениях: она мечтает о детях, а Олегу совсем не до этого. И вот очередной скандал семьи: Олег уходит, хлопнув дверью. Возвращается, а Бобровых нет. Они уехали. Олегу приходится отправиться в Россию. На родине ему предстоит не только вновь завоевать сердце Светы, но и объединить суперсилы семейства Бобровых в схватке со злодеями планетарного масштаба, сделав из нерадивых родственников настоящих супергероев.

Качество: WEB-DLRip
Видео: XviD build 73, 688x288 (2.40:1), 24.000 fps, 1301 Kbps (~ 0.217 bit/pixel)
Аудио: 48.0 kHz, MP3, 2/0 ch, 128 kbps
Продолжительность: 01:29:12
Перевод: Не требуется | iTunes
Cубтитры: нет

Релиз:


[+] MediaInfo

General
Complete name               : D:RazdachiSuperbobrovy.2018.XviD.745Mb.WEB-DLRip.GeneralFilm.avi
Format                      : AVI
Format/Info                 : Audio Video Interleave
File size                   : 745 MiB
Duration                    : 1 h 29 min
Overall bit rate            : 1 167 kb/s
Writing application         : VirtualDubMod 1.5.10.3 | www.virtualdub-fr.org || (build 2550/release)
Writing library             : VirtualDubMod build 2550/release

Video
ID                          : 0
Format                      : MPEG-4 Visual
Format profile              : Advanced Simple@L5
Format settings, BVOP       : 1
Format settings, QPel       : No
Format settings, GMC        : No warppoints
Format settings, Matrix     : Custom
Codec ID                    : XVID
Codec ID/Hint               : XviD
Duration                    : 1 h 29 min
Bit rate                    : 1 030 kb/s
Width                       : 688 pixels
Height                      : 288 pixels
Display aspect ratio        : 2.40:1
Frame rate                  : 24.000 FPS
Color space                 : YUV
Chroma subsampling          : 4:2:0
Bit depth                   : 8 bits
Scan type                   : Progressive
Compression mode            : Lossy
Bits/(Pixel*Frame)          : 0.217
Stream size                 : 657 MiB (88%)
Writing library             : XviD 73

Audio
ID                          : 1
Format                      : MPEG Audio
Format version              : Version 1
Format profile              : Layer 3
Codec ID                    : 55
Codec ID/Hint               : MP3
Duration                    : 1 h 29 min
Bit rate mode               : Constant
Bit rate                    : 128 kb/s
Channel(s)                  : 2 channels
Sampling rate               : 48.0 kHz
Compression mode            : Lossy
Stream size                 : 81.7 MiB (11%)
Alignment                   : Aligned on interleaves
Interleave, duration        : 42  ms (1.00 video frame)
Interleave, preload duratio : 504  ms
Writing library             : LAME3.99r
Encoding settings           : -m s -V 4 -q 2 -lowpass 17 -b 128



Скриншоты:
[+] Всего файлов в раздаче - 1:
Superbobrovy.2018.XviD.745Mb.WEB-DLRip.GeneralFilm.avi744.62 MB

Текущая раздача:
ДатаКомментарии    РазмерПиры
2018-12-07 U СуперБобровы. Народные мстители (2017) WEB-DLRip от GeneralFilm | iTunes 744.62 MB ↑ 116 ↓ 32

Показать еще раздачи по запросу супербобровы:
2018-12-08 U СуперБобровы. Народные мстители (2018) WEB-DLRip-AVC от Generalfilm | iTunes 1К1.15 GB ↑ 150 ↓ 47
2018-12-06 U СуперБобровы. Народные мстители (2017) WEB-DL 720p | iTunes 2.79 GB ↑ 262 ↓ 106
2018-12-06 U СуперБобровы. Народные мстители (2018) WEB-DLRip-AVC от OlLanDGroup | iTunes 1.39 GB ↑ 389 ↓ 229
2018-12-06 U СуперБобровы. Народные мстители (2017) WEB-DL 1080p | iTunes 3.06 GB ↑ 257 ↓ 204
2018-12-06 U СуперБобровы. Народные мстители (2017) WEB-DLRip от MegaPeer | iTunes 1.46 GB ↑ 368 ↓ 252
2016-08-24 U СуперБобровы (2015) BDRip 720p от HELLYWOOD | Лицензия 4.37 GB ↑ 60 ↓ 5
2016-05-23 U СуперБобровы (2016) HDRip от Scarabey | Лицензия 1.44 GB ↑ 153 ↓ 6

Отзывы
Зарегистрируйтесь чтобы добавить комментарий.
Обратная связь
Copyleft ©