↑↓Torrent.by
Поиск
Логин: Регистрация
Пароль: Восстановить пароль
Загрузка...

Патрик / Patrick (2018) WEB-DLRip-AVC от OlLanDGroup | iTunes

Скачать patrik-patrick-2018-web-dlrip-avc-ot-ollandgroup-itunes.torrent
U Магнитная ссылка Размер: 1.72 GB Раздают: 99 Качают: 38 Добавлен: 2018-12-07 06:22:09
Патрик / Patrick (2018) WEB-DLRip-AVC от OlLanDGroup | iTunes

Патрик / Patrick
«Pug... Actually»

Год выпуска: 2018
Страна: Великобритания
Производство: Wagging Tale Productions, BondIt, Fred Films
Жанр:  Комедия

Режиссёр: Мэнди Флетчер
В ролях: Битти Эдмондсон, Эд Скрейн, Том Беннетт, Эмили Атак, Дженнифер Сондерс, Шери Лунги, Джемма Джонс, Эмилия Джонс, Питер Дэвисон, Эдриан Скарборо, Скотт Чэмберс, Мира Сайал, Миланка Брукс

Перевод: Дублированный | [iTunes]
Субтитры: Английские (полные, SDH)
Реклама: Отсутствует

Описание: Сара никак не может привести свою жизнь в порядок: карьера не складывается, личная жизнь полна разочарований, а родители относятся с пренебрежением. Последнее, что ей сейчас нужно — это избалованный и капризный мопс по имени Патрик, который буквально врывается в жизнь бедной девушки. Но если люди не смогли стать для Сары друзьями, может, это получится у собаки?

Качество: WEB-DLRip-AVC | |
Продолжительность: 01:34:22

Формат: MKV
Видео кодек: MPEG-4 AVC
Аудио кодек: AC3
Видео: 1024x428 (2.40:1), 23,976 fps, x264 ~1 839 kbps avg, 0.175 bit/pixel
Аудио #1: 48 kHz, AC3 Dolby Digital, 3/2 (L,C,R,l,r) + LFE ch, ~384.00 kbps avg | RUS (iTunes)
Аудио #2: 48 kHz, AC3 Dolby Digital, 3/2 (L,C,R,l,r) + LFE ch, ~384.00 kbps avg | ENG

Дата премьеры (мир): 28 июня 2018
Дата премьеры (РФ): 11 октября 2018, «МВК»
Цифровой релиз: 6 декабря 2018, «Новый Фильм»

Релиз: Rip by:


[+] MediaInfo

Общее
Уникальный идентификатор                 : 298316054518139665530933508607317847811 (0xE06D950CF23D2AEA9B9D9CB71B9B2F03)
Полное имя                               : F:OlLanDGroupPatrick.2018.WEB-DLRip(AVC).OlLanDGroup.mkv
Формат                                   : Matroska
Версия формата                           : Version 4 / Version 2
Размер файла                             : 1,72 Гбайт
Продолжительность                        : 1 ч. 34 м.
Общий поток                              : 2608 Кбит/сек
Название фильма                          : Patrick.2018   #TorpedoUK#
Дата кодирования                         : UTC 2018-12-06 17:51:44
Программа кодирования                    : mkvmerge v25.0.0 ('Prog Noir') 64-bit
Библиотека кодирования                   : libebml v1.3.6 + libmatroska v1.4.9
Обложка                                  : Yes
Attachments                              : cover_land.jpg / small_cover.jpg / small_cover_land.jpg / cover.jpg

Видео
Идентификатор                            : 1
Формат                                   : AVC
Формат/Информация                        : Advanced Video Codec
Профиль формата                          : High@L4.1
Параметр CABAC формата                   : Да
Параметр ReFrames формата                : 10 кадров
Идентификатор кодека                     : V_MPEG4/ISO/AVC
Продолжительность                        : 1 ч. 34 м.
Битрейт                                  : 1839 Кбит/сек
Ширина                                   : 1024 пикселя
Высота                                   : 428 пикселей
Соотношение сторон                       : 2,40:1
Режим частоты кадров                     : Постоянный
Частота кадров                           : 23,976 (24000/1001) кадра/сек
Цветовое пространство                    : YUV
Субдискретизация насыщенности            : 4:2:0
Битовая глубина                          : 8 бит
Тип развёртки                            : Прогрессивная
Бит/(Пиксели*Кадры)                      : 0.175
Размер потока                            : 1,21 Гбайт (70%)
Библиотека кодирования                   : x264 core 146 r2538 121396c
Настройки программы                      : cabac=1 / ref=10 / deblock=1:-2:-3 / analyse=0x3:0x113 / me=umh / subme=10 / psy=1 / psy_rd=0.97:0.05 / mixed_ref=1 / me_range=48 / chroma_me=1 / trellis=2 / 8x8dct=1 / cqm=0 / deadzone=21,11 / fast_pskip=1 / chroma_qp_offset=-3 / threads=6 / lookahead_threads=1 / sliced_threads=0 / nr=0 / decimate=1 / interlaced=0 / bluray_compat=0 / constrained_intra=0 / bframes=11 / b_pyramid=2 / b_adapt=2 / b_bias=0 / direct=3 / weightb=1 / open_gop=0 / weightp=2 / keyint=240 / keyint_min=23 / scenecut=40 / intra_refresh=0 / rc_lookahead=40 / rc=2pass / mbtree=0 / bitrate=1839 / ratetol=1.0 / qcomp=0.60 / qpmin=0 / qpmax=69 / qpstep=4 / cplxblur=20.0 / qblur=0.5 / vbv_maxrate=50000 / vbv_bufsize=62500 / nal_hrd=none / filler=0 / ip_ratio=1.40 / pb_ratio=1.30 / aq=1:1.00
Язык                                     : English
Default                                  : Да
Forced                                   : Нет

Аудио #1
Идентификатор                            : 2
Формат                                   : AC-3
Формат/Информация                        : Audio Coding 3
Расширение режима                        : CM (complete main)
Параметр Endianness формата              : Big
Идентификатор кодека                     : A_AC3
Продолжительность                        : 1 ч. 34 м.
Вид битрейта                             : Постоянный
Битрейт                                  : 384 Кбит/сек
Каналы                                   : 6 каналов
Расположение каналов                     : Front: L C R, Side: L R, LFE
Частота                                  : 48,0 КГц
Частота кадров                           : 31,250 кадров/сек (1536 spf)
Битовая глубина                          : 16 бит
Метод сжатия                             : С потерями
Размер потока                            : 259 Мбайт (15%)
Заголовок                                : DUB [iTunes]
Язык                                     : Russian
Default                                  : Да
Forced                                   : Нет

Аудио #2
Идентификатор                            : 3
Формат                                   : AC-3
Формат/Информация                        : Audio Coding 3
Расширение режима                        : CM (complete main)
Параметр Endianness формата              : Big
Идентификатор кодека                     : A_AC3
Продолжительность                        : 1 ч. 34 м.
Вид битрейта                             : Постоянный
Битрейт                                  : 384 Кбит/сек
Каналы                                   : 6 каналов
Расположение каналов                     : Front: L C R, Side: L R, LFE
Частота                                  : 48,0 КГц
Частота кадров                           : 31,250 кадров/сек (1536 spf)
Битовая глубина                          : 16 бит
Метод сжатия                             : С потерями
Размер потока                            : 259 Мбайт (15%)
Заголовок                                : [Original]
Язык                                     : English
Default                                  : Нет
Forced                                   : Нет

Текст #1
Идентификатор                            : 4
Формат                                   : UTF-8
Идентификатор кодека                     : S_TEXT/UTF8
Идентификатор кодека/Информация          : UTF-8 Plain Text
Продолжительность                        : 1 ч. 29 м.
Битрейт                                  : 62 бит/сек
Count of elements                        : 1368
Размер потока                            : 41,3 Кбайт (0%)
Заголовок                                : Full
Язык                                     : English
Default                                  : Нет
Forced                                   : Нет

Текст #2
Идентификатор                            : 5
Формат                                   : UTF-8
Идентификатор кодека                     : S_TEXT/UTF8
Идентификатор кодека/Информация          : UTF-8 Plain Text
Продолжительность                        : 1 ч. 30 м.
Битрейт                                  : 80 бит/сек
Count of elements                        : 1796
Размер потока                            : 53,2 Кбайт (0%)
Заголовок                                : SDH
Язык                                     : English
Default                                  : Нет
Forced                                   : Нет

Меню
00:00:00.000                             : en:1
00:09:19.000                             : en:2
00:20:14.000                             : en:3
00:29:36.000                             : en:4
00:40:49.000                             : en:5
00:49:01.000                             : en:6
01:00:37.000                             : en:7
01:09:55.000                             : en:8
01:20:30.000                             : en:9
01:28:08.000                             : en:10



Скриншоты:
[+] Всего файлов в раздаче - 1:
Patrick.2018.WEB-DLRip(AVC).OlLanDGroup.mkv1.72 GB

Текущая раздача:
ДатаКомментарии    РазмерПиры
2018-12-07 U Патрик / Patrick (2018) WEB-DLRip-AVC от OlLanDGroup | iTunes 1.72 GB ↑ 99 ↓ 38

Показать еще раздачи по запросу патрик:
2018-12-07 U Патрик / Patrick (2018) WEB-DLRip от MegaPeer | iTunes 1.46 GB ↑ 213 ↓ 85
2018-06-11 U Патрик Мелроуз / Patrick Melrose [S01] (2018) WEB-DL 1080p | Amedia 18.83 GB ↑ 99 ↓ 89
2018-06-10 U Патрик Мелроуз / Patrick Melrose [S01] (2018) WEBRip | IdeaFilm 4.65 GB ↑ 39 ↓ 143
2018-06-05 U Патрик Мелроуз / Patrick Melrose [01x01-04 из 05] (2018) WEB-DL 720p | Amedia 5.78 GB ↑ 39 ↓ 64
2018-06-04 U Патрик Мелроуз / Patrick Melrose [01x01-04 из 05] (2018) WEB-DL 1080p | Amedia 15.87 GB ↑ 22 ↓ 115
2018-05-22 U Патрик Мелроуз / Patrick Melrose [01x01-02 из 05] (2018) WEB-DL 1080p | Amedia 1К9.41 GB ↑ 77 ↓ 55
2018-05-20 U Патрик Мелроуз / Patrick Melrose [01х01-02 из 05] (2018) WEB-DLRip 720p | Sunshine Studio 2.38 GB ↑ 42 ↓ 105

Отзывы
Зарегистрируйтесь чтобы добавить комментарий.
Обратная связь
Copyleft ©