↑↓torrent.by
Поиск
Логин: Регистрация
Пароль: Восстановить пароль

Веном / Venom (2018) BDRip 1080p от селезень | HDRezka Studio

Скачать venom-2018-bdrip-1080p-ot-selezen-hdrezka-studio.torrent
U Магнитная ссылка Размер: 11.91 GB Раздают: 2785 Качают: 2064 Добавлен: 2018-12-07 20:39:18
Веном / Venom (2018) BDRip 1080p от селезень | HDRezka Studio

Название: Веном
Оригинальное название: Venom
Год выхода: 2018
Жанр: Фантастика, боевик, триллер, комикс, супергерой
Режиссер: Рубен Фляйшер
В ролях: Том Харди, Мишель Уильямс, Риз Ахмед, Рейд Скотт, Марчелла Браджио, Вуди Харрельсон, Дженни Слейт, Пегги Лу, Мак Брандт, Рон Сефас Джонс, Мишель Ли (II), Мелора Уолтерс, Сопе Алуко

О фильме: Что если в один прекрасный день в тебя вселяется существо-симбиот, которое наделяет тебя сверхчеловеческими способностями? Вот только Веном - симбиот совсем недобрый, и договориться с ним невозможно. Хотя нужно ли договариваться?.. Ведь в какой-то момент ты понимаешь, что быть плохим вовсе не так уж и плохо. Так даже веселее. В мире и так слишком много супергероев! Мы - Веном!

Страна: США
Студия: Columbia Pictures Corporation, Marvel Entertainment, Pascal Pictures
Продолжительность: 01:52:08
Перевод: Профессиональный многоголосый | HDRezka Studio

Качество: BDRip 1080p
Видео: MPEG-4 AVC, 1920x800, 13.5 Mbit/s, 23.976 fps
Звук:
Аудио #01: 48 kHz, AC3, 2.0, 192 Kbps | HDRezka Studio | RUS |
Аудио #02: 48 kHz, DTS, 5.1, 1510 Kbps | Оригинал |  ENG |
Субтитры: Русские (Full), английские

Релиз:


[+] MI
General
Unique ID                   : 27565998888418721286433019810741222079 (0x14BD04AD620E47219E878E736447FABF)
Complete name               : D:Video111Venom.2018.BDRip.1080p.selezen.mkv
Format                      : Matroska
Format version              : Version 4
File size                   : 11.9 GiB
Duration                    : 1 h 52 min
Overall bit rate            : 15.2 Mb/s
Movie name                  : Venom 2018 from селезень
Encoded date                : UTC 2018-12-07 11:57:35
Writing application         : mkvmerge v29.0.0 ('Like It Or Not') 64-bit
Writing library             : libebml v1.3.6 + libmatroska v1.4.9

Video
ID                          : 1
Format                      : AVC
Format/Info                 : Advanced Video Codec
Format profile              : High@L4.1
Format settings             : CABAC / 5 Ref Frames
Format settings, CABAC      : Yes
Format settings, ReFrames   : 5 frames
Codec ID                    : V_MPEG4/ISO/AVC
Duration                    : 1 h 52 min
Bit rate                    : 13.5 Mb/s
Width                       : 1 920 pixels
Height                      : 800 pixels
Display aspect ratio        : 2.40:1
Frame rate mode             : Constant
Frame rate                  : 23.976 (24000/1001) FPS
Color space                 : YUV
Chroma subsampling          : 4:2:0
Bit depth                   : 8 bits
Scan type                   : Progressive
Bits/(Pixel*Frame)          : 0.367
Stream size                 : 10.6 GiB (89%)
Title                       : Medusa @ HDChina
Writing library             : x264 core 148 r2665kMod a01e339
Encoding settings           : cabac=1 / ref=5 / deblock=1:-3:-3 / analyse=0x3:0x133 / me=umh / subme=11 / psy=1 / fade_compensate=0.00 / psy_rd=0.85:0.00 / mixed_ref=1 / me_range=48 / chroma_me=1 / trellis=2 / 8x8dct=1 / cqm=0 / deadzone=21,11 / fast_pskip=0 / chroma_qp_offset=-2 / threads=24 / lookahead_threads=4 / sliced_threads=0 / nr=0 / decimate=0 / interlaced=0 / bluray_compat=0 / constrained_intra=0 / fgo=0 / bframes=8 / b_pyramid=2 / b_adapt=2 / b_bias=0 / direct=3 / weightb=1 / open_gop=0 / weightp=2 / keyint=240 / keyint_min=24 / scenecut=40 / intra_refresh=0 / rc=2pass / mbtree=0 / bitrate=13500 / ratetol=1.0 / qcomp=0.70 / qpmin=0 / qpmax=69 / qpstep=4 / cplxblur=20.0 / qblur=0.5 / ip_ratio=1.20 / pb_ratio=1.20 / aq=3:0.80
Language                    : English
Default                     : Yes
Forced                      : No

Audio #1
ID                          : 2
Format                      : AC-3
Format/Info                 : Audio Coding 3
Commercial name             : Dolby Digital
Codec ID                    : A_AC3
Duration                    : 1 h 52 min
Bit rate mode               : Constant
Bit rate                    : 192 kb/s
Channel(s)                  : 2 channels
Channel layout              : L R
Sampling rate               : 48.0 kHz
Frame rate                  : 31.250 FPS (1536 SPF)
Bit depth                   : 16 bits
Compression mode            : Lossy
Stream size                 : 154 MiB (1%)
Title                       : MVO [HDRezka Studio]
Language                    : Russian
Service kind                : Complete Main
Default                     : Yes
Forced                      : Yes

Audio #2
ID                          : 3
Format                      : DTS
Format/Info                 : Digital Theater Systems
Codec ID                    : A_DTS
Duration                    : 1 h 52 min
Bit rate mode               : Constant
Bit rate                    : 1 509 kb/s
Channel(s)                  : 6 channels
Channel layout              : C L R Ls Rs LFE
Sampling rate               : 48.0 kHz
Frame rate                  : 93.750 FPS (512 SPF)
Bit depth                   : 16 bits
Compression mode            : Lossy
Stream size                 : 1.18 GiB (10%)
Title                       : Original
Language                    : English
Default                     : No
Forced                      : No

Text #1
ID                          : 4
Format                      : UTF-8
Codec ID                    : S_TEXT/UTF8
Codec ID/Info               : UTF-8 Plain Text
Duration                    : 1 h 34 min
Bit rate                    : 101 b/s
Count of elements           : 1334
Stream size                 : 70.6 KiB (0%)
Title                       : Full
Language                    : Russian
Default                     : No
Forced                      : No

Text #2
ID                          : 5
Format                      : UTF-8
Codec ID                    : S_TEXT/UTF8
Codec ID/Info               : UTF-8 Plain Text
Duration                    : 1 h 49 min
Bit rate                    : 56 b/s
Count of elements           : 1395
Stream size                 : 45.1 KiB (0%)
Title                       : SDH
Language                    : English
Default                     : No
Forced                      : No

Menu
00:00:00.000                : en:00:00:00.000
00:04:43.200                : en:00:04:43.200
00:10:58.074                : en:00:10:58.074
00:17:34.929                : en:00:17:34.929
00:24:05.486                : en:00:24:05.486
00:32:18.812                : en:00:32:18.812
00:40:07.447                : en:00:40:07.447
00:46:51.976                : en:00:46:51.976
00:53:26.203                : en:00:53:26.203
01:00:57.070                : en:01:00:57.070
01:04:01.796                : en:01:04:01.796
01:08:36.446                : en:01:08:36.446
01:11:12.852                : en:01:11:12.852
01:14:15.743                : en:01:14:15.743
01:21:18.749                : en:01:21:18.749
01:27:15.021                : en:01:27:15.021



Скриншоты:
[+] Всего файлов в раздаче - 1:
Venom.2018.BDRip.1080p.selezen.mkv11.91 GB

Похожие раздачи по запросу - веном:
2021-02-08 U Веном / Venom (2018) BDRip 1080p от qqss44 & MegaPeer | Лицензия 7.75 GB ↑ 74 ↓ 9
2018-12-20 U Веном / Venom (2018) BDRip-AVC от HELLYWOOD | iTunes 2.13 GB ↑ 954 ↓ 343

Отзывы
Зарегистрируйтесь чтобы добавить комментарий.
Загрузите программу
  uTorrent.exe
Обратная связь
Copyleft ©