↑↓Torrent.by
Поиск
Логин: Регистрация
Пароль: Восстановить пароль
Загрузка...

Вечная жизнь Александра Христофорова (2018) WEB-DL 1080p | iTunes

Скачать vechnaya-zhizn-aleksandra-hristoforova-2018-web-dl-1080p-itunes.torrent
U Магнитная ссылка Размер: 3.70 GB Раздают: 344 Качают: 63 Добавлен: 2018-12-09 12:40:17
Вечная жизнь Александра Христофорова (2018) WEB-DL 1080p | iTunes

Название: Вечная жизнь Александра Христофорова
Год выпуска: 2018
Жанр:  Комедия
Режиссер: Евгений Шелякин
В ролях: Алексей Гуськов, Оксана Фандера, Роман Курцын, Лидия Вележева, Полина Пушкарук, Станислав Любшин

Описание: В прошлом Христофоров был звездой театра и кино, теперь он массовик в курортном городке. Но бывший актер не отчаивается, живет здесь и сейчас. И пусть бывшая жена строит козни, а сын его избегает, Христофоров упорно двигается дальше. После скандального увольнения фортуна делает герою сказочный подарок в виде любимой женщины. Поможет ли встреча изменить жизнь вечного неудачника?

Страна: Россия
Студия: «58,5 ПРОДАКШН»
Продолжительность: 01:44:35
Перевод: Не требуется

Файл
Качество: WEB-DL 1080p
Контейнер: MKV
Видео: MPEG-4 AVC ([email protected]); 1920x806, 24.000 fps, 4685 Kbps
Аудио: AC-3; 16 bits 48 Khz; 5.1ch 384 Kbps; CBR
Субтитры: Нет

Релиз от: george$t


[+] MediaInfo
General
Unique ID                   : 230597221395882603502806027822416988435 (0xAD7B68CCFD284FB99CE1AE003D370913)
Complete name               : Вечная жизнь Александра Христофорова.2018.mkv
Format                      : Matroska
Format version              : Version 2
File size                   : 3.70 GiB
Duration                    : 1 h 44 min
Overall bit rate            : 5 071 kb/s
Encoded date                : UTC 2018-12-01 11:43:18
Writing application         : mkvmerge v7.8.0 ('River Man') 32bit built on Mar 27 2015 16:18:02
Writing library             : libebml v1.3.1 + libmatroska v1.4.2

Video
ID                          : 1
Format                      : AVC
Format/Info                 : Advanced Video Codec
Format profile              : High@L4
Format settings             : CABAC / 5 Ref Frames
Format settings, CABAC      : Yes
Format settings, ReFrames   : 5 frames
Codec ID                    : V_MPEG4/ISO/AVC
Duration                    : 1 h 44 min
Bit rate                    : 4 586 kb/s
Width                       : 1 920 pixels
Height                      : 806 pixels
Display aspect ratio        : 2.40:1
Frame rate mode             : Constant
Frame rate                  : 24.000 FPS
Color space                 : YUV
Chroma subsampling          : 4:2:0
Bit depth                   : 8 bits
Scan type                   : Progressive
Bits/(Pixel*Frame)          : 0.123
Stream size                 : 3.35 GiB (90%)
Title                       : Вечная жизнь Александра Христофорова
Language                    : Russian
Default                     : Yes
Forced                      : No
Color range                 : Limited
Color primaries             : BT.709
Transfer characteristics    : BT.709
Matrix coefficients         : BT.709

Audio
ID                          : 2
Format                      : AC-3
Format/Info                 : Audio Coding 3
Codec ID                    : A_AC3
Duration                    : 1 h 44 min
Bit rate mode               : Constant
Bit rate                    : 384 kb/s
Channel(s)                  : 6 channels
Channel positions           : Front: L C R, Side: L R, LFE
Sampling rate               : 48.0 kHz
Frame rate                  : 31.250 FPS (1536 SPF)
Bit depth                   : 16 bits
Compression mode            : Lossy
Stream size                 : 287 MiB (8%)
Title                       : AC-3; 16 bits 48 Khz; 5.1ch 384 Kbps; CBR
Language                    : Russian
Service kind                : Complete Main
Default                     : Yes
Forced                      : No



Скриншоты:
[+] Всего файлов в раздаче - 1:
Вечная жизнь Александра Христофорова.2018.mkv3.70 GB

Показать еще раздачи по запросу вечная:
2018-12-13 U Наука: Не факт! Вечная жизнь (2018) HDTVRip 353.59 MB ↑ 63 ↓ 8
2018-12-06 U Вечная жизнь Александра Христофорова (2018) WEB-DLRip-AVC | iTunes 2.15 GB ↑ 207 ↓ 12
2018-12-02 U Вечная жизнь Александра Христофорова (2018) WEB-DLRip от Generalfilm 746.57 MB ↑ 339 ↓ 64
2018-12-02 U Вечная жизнь Александра Христофорова (2018) WEB-DLRip от MegaPeer 1.46 GB ↑ 1043 ↓ 311
2015-12-15 U Вечная жизнь / Das ewige Leben (2015) BDRip 1080p | L1 4К5.18 GB ↑ 84 ↓ 19
2015-12-08 U Вечная жизнь / Das ewige Leben (2015) BDRip | L1 1К1.70 GB ↑ 334 ↓ 177
2013-12-09 U Вечная сказка (2013) HDTVRip от Files-x 1.36 GB ↑ 538 ↓ 276

Отзывы
Зарегистрируйтесь чтобы добавить комментарий.
Обратная связь
Copyleft ©