↑↓Torrent.by
Поиск
Логин: Регистрация
Пароль: Восстановить пароль
Загрузка...

Хищник / The Predator (2018) BDRip-AVC от OlLanDGroup | D, P | iTunes

Скачать hischnik-the-predator-2018-bdrip-avc-ot-ollandgroup-d-p-itunes.torrent
U Магнитная ссылка Размер: 2.20 GB Раздают: 3620 Качают: 152 Добавлен: 2018-12-10 19:02:22
Хищник / The Predator (2018) BDRip-AVC от OlLanDGroup | D, P | iTunes

Хищник / The Predator
«You'll never see him coming»

Год выпуска: 2018
Страна: США, Канада
Производство: Twentieth Century Fox, Davis Entertainment, TSG Entertainment
Жанр:  Ужасы, фантастика, боевик, триллер, приключения

Режиссёр: Шейн Блэк
В ролях: Бойд Холбрук, Треванте Роудс, Джейкоб Трамбле, Кигэн-Майкл Ки, Оливия Манн, Стерлинг К. Браун, Томас Джейн, Элфи Оуэн-Аллен, Августо Агилера, Джейк Бьюзи

Перевод:
#1: Дублированный | [iTunes]
#2: Профессиональный многоголосый | [HDRezka Studio]
Субтитры: Русские (форсированные, полные), Английские (полные, SDH)
Реклама: Отсутствует

Описание: Главный герой, бывший морпех, обнаруживает злобную инопланетную расу на Земле, но никто не верит ему, что эти твари существуют. Его сын-аутист, которого все обижают в школе, становится ключевой фигурой в схватке с Хищниками, поскольку мальчик умеет невероятно быстро учить языки и, судя по всему, сможет понять пришельцев.

Качество: BDRip-AVC | BluRay Disc | The Predator 2018 BluRay 1080p AVC DTS-HD MA7.1-MTeam
Продолжительность: 01:46:56

Формат: MKV
Видео кодек: MPEG-4 AVC
Аудио кодек: AC3
Видео: 1024x428 (2.40:1), 23,976 fps, x264 ~1 679 kbps avg, 0.160 bit/pixel
Аудио #1: 48 kHz, AC3 Dolby Digital, 3/2 (L,C,R,l,r) + LFE ch, ~384.00 kbps avg | RUS (iTunes)
Аудио #2: 48 kHz, AC3 Dolby Digital, 2 (L,R) ch, ~192.00 kbps avg | RUS (HDRezka Studio)
Аудио #3: 48 kHz, AC3 Dolby Digital, 3/2 (L,C,R,l,r) + LFE ch, ~448.00 kbps avg | ENG

Дата премьеры (мир): 7 сентября 2018
Дата премьеры (РФ): 13 сентября 2018, «Двадцатый Век Фокс СНГ»
Цифровой релиз: 7 декабря 2018, «Двадцатый Век Фокс СНГ»

Релиз:


[+] MediaInfo

Общее
Уникальный идентификатор                 : 264351700400708841536568632720185662047 (0xC6E0491ACC0CCA7EC6781FB9D7549A5F)
Полное имя                               : F:OlLanDGroupThe.Predator.2018.BDRip(AVC).OlLanDGroup.mkv
Формат                                   : Matroska
Версия формата                           : Version 4 / Version 2
Размер файла                             : 2,20 Гбайт
Продолжительность                        : 1 ч. 46 м.
Общий поток                              : 2950 Кбит/сек
Название фильма                          : The Predator 2018   #TorpedoUK#
Дата кодирования                         : UTC 2018-12-10 17:16:35
Программа кодирования                    : mkvmerge v29.0.0 ('Like It Or Not') 64-bit
Библиотека кодирования                   : libebml v1.3.6 + libmatroska v1.4.9

Видео
Идентификатор                            : 1
Формат                                   : AVC
Формат/Информация                        : Advanced Video Codec
Профиль формата                          : High@L4.1
Параметр CABAC формата                   : Да
Параметр ReFrames формата                : 10 кадров
Идентификатор кодека                     : V_MPEG4/ISO/AVC
Продолжительность                        : 1 ч. 46 м.
Битрейт                                  : 1924 Кбит/сек
Ширина                                   : 1024 пикселя
Высота                                   : 428 пикселей
Соотношение сторон                       : 2,40:1
Режим частоты кадров                     : Постоянный
Частота кадров                           : 23,976 (24000/1001) кадра/сек
Цветовое пространство                    : YUV
Субдискретизация насыщенности            : 4:2:0
Битовая глубина                          : 8 бит
Тип развёртки                            : Прогрессивная
Бит/(Пиксели*Кадры)                      : 0.183
Размер потока                            : 1,44 Гбайт (65%)
Библиотека кодирования                   : x264 core 146 r2538 121396c
Настройки программы                      : cabac=1 / ref=10 / deblock=1:-3:-3 / analyse=0x3:0x113 / me=umh / subme=11 / psy=1 / psy_rd=1.00:0.03 / mixed_ref=1 / me_range=48 / chroma_me=1 / trellis=2 / 8x8dct=1 / cqm=0 / deadzone=21,11 / fast_pskip=1 / chroma_qp_offset=-3 / threads=6 / lookahead_threads=1 / sliced_threads=0 / nr=0 / decimate=1 / interlaced=0 / bluray_compat=0 / constrained_intra=0 / bframes=11 / b_pyramid=2 / b_adapt=2 / b_bias=0 / direct=3 / weightb=1 / open_gop=0 / weightp=2 / keyint=240 / keyint_min=23 / scenecut=40 / intra_refresh=0 / rc_lookahead=40 / rc=2pass / mbtree=0 / bitrate=1924 / ratetol=1.0 / qcomp=0.60 / qpmin=0 / qpmax=69 / qpstep=4 / cplxblur=20.0 / qblur=0.5 / vbv_maxrate=50000 / vbv_bufsize=62500 / nal_hrd=none / filler=0 / ip_ratio=1.40 / pb_ratio=1.30 / aq=1:1.00
Язык                                     : English
Default                                  : Да
Forced                                   : Нет

Аудио #1
Идентификатор                            : 2
Формат                                   : AC-3
Формат/Информация                        : Audio Coding 3
Расширение режима                        : CM (complete main)
Параметр Endianness формата              : Big
Идентификатор кодека                     : A_AC3
Продолжительность                        : 1 ч. 46 м.
Вид битрейта                             : Постоянный
Битрейт                                  : 384 Кбит/сек
Каналы                                   : 6 каналов
Расположение каналов                     : Front: L C R, Side: L R, LFE
Частота                                  : 48,0 КГц
Частота кадров                           : 31,250 кадров/сек (1536 spf)
Битовая глубина                          : 16 бит
Метод сжатия                             : С потерями
Размер потока                            : 294 Мбайт (13%)
Заголовок                                : DUB [iTunes]
Язык                                     : Russian
Default                                  : Да
Forced                                   : Нет

Аудио #2
Идентификатор                            : 3
Формат                                   : AC-3
Формат/Информация                        : Audio Coding 3
Расширение режима                        : CM (complete main)
Параметр Endianness формата              : Big
Идентификатор кодека                     : A_AC3
Продолжительность                        : 1 ч. 46 м.
Вид битрейта                             : Постоянный
Битрейт                                  : 192 Кбит/сек
Каналы                                   : 2 канала
Расположение каналов                     : Front: L R
Частота                                  : 48,0 КГц
Частота кадров                           : 31,250 кадров/сек (1536 spf)
Битовая глубина                          : 16 бит
Метод сжатия                             : С потерями
Размер потока                            : 147 Мбайт (6%)
Заголовок                                : MVO [HDRezka Studio]
Язык                                     : Russian
Default                                  : Нет
Forced                                   : Нет

Аудио #3
Идентификатор                            : 4
Формат                                   : AC-3
Формат/Информация                        : Audio Coding 3
Расширение режима                        : CM (complete main)
Параметр Endianness формата              : Big
Идентификатор кодека                     : A_AC3
Продолжительность                        : 1 ч. 46 м.
Вид битрейта                             : Постоянный
Битрейт                                  : 448 Кбит/сек
Каналы                                   : 6 каналов
Расположение каналов                     : Front: L C R, Side: L R, LFE
Частота                                  : 48,0 КГц
Частота кадров                           : 31,250 кадров/сек (1536 spf)
Битовая глубина                          : 16 бит
Метод сжатия                             : С потерями
Размер потока                            : 343 Мбайт (15%)
Заголовок                                : [Original]
Язык                                     : English
Default                                  : Нет
Forced                                   : Нет

Текст #1
Идентификатор                            : 5
Формат                                   : UTF-8
Идентификатор кодека                     : S_TEXT/UTF8
Идентификатор кодека/Информация          : UTF-8 Plain Text
Продолжительность                        : 1 ч. 45 м.
Битрейт                                  : 1 бит/сек
Count of elements                        : 22
Размер потока                            : 1,02 Кбайт (0%)
Заголовок                                : Forced
Язык                                     : Russian
Default                                  : Да
Forced                                   : Нет

Текст #2
Идентификатор                            : 6
Формат                                   : UTF-8
Идентификатор кодека                     : S_TEXT/UTF8
Идентификатор кодека/Информация          : UTF-8 Plain Text
Продолжительность                        : 1 ч. 45 м.
Битрейт                                  : 70 бит/сек
Count of elements                        : 1270
Размер потока                            : 54,4 Кбайт (0%)
Заголовок                                : Full
Язык                                     : Russian
Default                                  : Нет
Forced                                   : Нет

Текст #3
Идентификатор                            : 7
Формат                                   : UTF-8
Идентификатор кодека                     : S_TEXT/UTF8
Идентификатор кодека/Информация          : UTF-8 Plain Text
Продолжительность                        : 1 ч. 38 м.
Битрейт                                  : 49 бит/сек
Count of elements                        : 1366
Размер потока                            : 35,6 Кбайт (0%)
Заголовок                                : Full
Язык                                     : English
Default                                  : Нет
Forced                                   : Нет

Текст #4
Идентификатор                            : 8
Формат                                   : UTF-8
Идентификатор кодека                     : S_TEXT/UTF8
Идентификатор кодека/Информация          : UTF-8 Plain Text
Продолжительность                        : 1 ч. 38 м.
Битрейт                                  : 59 бит/сек
Count of elements                        : 1707
Размер потока                            : 43,1 Кбайт (0%)
Заголовок                                : SDH
Язык                                     : English
Default                                  : Нет
Forced                                   : Нет

Меню
00:00:00.000                             : :Глава 01
00:02:00.703                             : :Глава 02
00:08:32.929                             : :Глава 03
00:09:45.334                             : :Глава 04
00:13:47.660                             : :Глава 05
00:16:09.176                             : :Глава 06
00:17:36.430                             : :Глава 07
00:20:21.470                             : :Глава 08
00:25:01.958                             : :Глава 09
00:27:36.279                             : :Глава 10
00:31:10.076                             : :Глава 11
00:36:23.347                             : :Глава 12
00:38:00.653                             : :Глава 13
00:39:42.546                             : :Глава 14
00:44:34.713                             : :Глава 15
00:49:15.911                             : :Глава 16
00:53:18.612                             : :Глава 17
00:58:34.510                             : :Глава 18
00:59:58.511                             : :Глава 19
01:03:16.292                             : :Глава 20
01:06:36.826                             : :Глава 21
01:09:51.020                             : :Глава 22
01:12:26.633                             : :Глава 23
01:15:55.634                             : :Глава 24
01:18:52.686                             : :Глава 25
01:21:24.629                             : :Глава 26
01:23:08.942                             : :Глава 27
01:27:08.806                             : :Глава 28
01:30:55.241                             : :Глава 29
01:32:14.820                             : :Глава 30
01:35:08.411                             : :Глава 31
01:40:00.202                             : :Глава 32



Скриншоты:
[+] Всего файлов в раздаче - 1:
The.Predator.2018.BDRip(AVC).OlLanDGroup.mkv2.20 GB

Показать еще раздачи по запросу хищник:
2019-07-22 U Хищник / The Predator (2018) BDRip от HQ-ViDEO | Лицензия 2.18 GB ↑ 215 ↓ 59
2018-12-28 U Хищник / The Predator (2018) HDRip от Scarabey | Лицензия 1.45 GB ↑ 85 ↓ 11
2018-12-25 U Хищник / The Predator (2018) BDRip-AVC от HELLYWOOD | Лицензия 1.46 GB ↑ 186 ↓ 24
2018-12-25 U Хищник / The Predator (2018) BDRip 720p от селезень | D, P, A | Лицензия 9.08 GB ↑ 70 ↓ 19
2018-12-25 U Хищник / The Predator (2018) BDRip от MegaPeer | D, A | Лицензия 2.18 GB ↑ 63 ↓ 25
2018-12-11 U Хищник / The Predator (2018) BDRip от ExKinoRay | iTunes 1.41 GB ↑ 347 ↓ 34
2018-12-09 U Хищник / The Predator (2018) HDRip-AVC от qusi555 | iTunes 1.47 GB ↑ 392 ↓ 64

Отзывы
Зарегистрируйтесь чтобы добавить комментарий.
Обратная связь
Copyleft ©