↑↓Torrent.by
Поиск
Логин: Регистрация
Пароль: Восстановить пароль
Загрузка...

Тайна магазина игрушек / Tea Pets (2017) WEB-DLRip 720p | Локализованная версия | iTunes

Скачать tayna-magazina-igrushek-tea-pets-2017-web-dlrip-720p-lokalizovannaya-versiya-itunes.torrent
U Магнитная ссылка Размер: 3.00 GB Раздают: 119 Качают: 47 Добавлен: 2018-12-13 08:20:27
Тайна магазина игрушек / Tea Pets (2017) WEB-DLRip 720p | Локализованная версия | iTunes

Название: Тайна магазина игрушек
Оригинальное название: Tea Pets
Год выхода: 2017
Жанр: мультфильм, фэнтези, приключения, семейный
Режиссер: Гэри Ван
В ролях: Ши Лэй, Ивонн Чжао, Юань Цзэюй, Цзи Гуаньлинь, Хун Хуан, Чжан Лэй, Янь Яньшэн.
Роли дублировали: Евгений Толоконников, Александра Остроухова, Сергей Вострецов, Варвара Чабан, Ольга Голованова, Сергей Чихачёв, Борис Токарев.

О фильме:
Робот Таймбот падает на землю после того, как его космический корабль терпит крушение. Он попадает в магазин игрушек, обитатели которого жили тихой и спокойной жизнью — играли, а по ночам пугали друг друга историями о некоем Правителе подземелья, который с помощью верных помощников, крыс Шмыгуна и Пискуна, похищает их друзей из соседних магазинов. Однажды пропадает их подружка Мэй, и игрушки во главе с Таймботом убегают из магазина и отправляются в город на ее поиски. С этого и начинаются интересные, полные юмора и приключений путешествия маленьких героев под недоуменные взгляды городских жителей.

Страна: Китай
Продолжительность: 01:37:33
Перевод: Профессиональный (полное дублирование) [iTunes]
Субтитры: отсутствуют

Файл
Кодек: х.264
Качество: WEB-DLRip 720p
Видео: 1280x536 (2.35:1), 24.000 fps, AVC MPEG-4 (х.264), [email protected] ~3935 kbps, 0.239 bit/pixel
Аудио: 48 kHz, AC3 Dolby Digital, 3/2 (L,C,R,l,r) + LFE ch, ~384 kbps

Реклама отсутствует.


[+] MediaInfo
General
Unique ID                        : 191700715649232200010019968239297731896 (0x9038370141D1AB69AA51C1E749099D38)
Complete name                    : E:Tea Pets.2017_Klayd X.mkv
Format                           : Matroska
File size                        : 3.00 GiB
Duration                         : 1h 37mn
Overall bit rate                 : 4 407 Kbps
Movie name                       : TEA_PETS_2017_WEB_DL_720p-BLUEBIRD
Encoded date                     : UTC 2018-11-19 19:14:09
Writing application              : mkvmerge v6.9.1 ('Blue Panther') 32bit built on Apr 18 2014 18:15:44
Writing library                  : libebml v1.3.0 + libmatroska v1.4.1
Cover                            : Yes

Video
ID                               : 1
Format                           : AVC
Format/Info                      : Advanced Video Codec
Format profile                   : Main@L3.1
Format settings, CABAC           : No
Format settings, ReFrames        : 2 frames
Codec ID                         : V_MPEG4/ISO/AVC
Duration                         : 1h 37mn
Bit rate                         : 3 935 Kbps
Width                            : 1 280 pixels
Height                           : 536 pixels
Display aspect ratio             : 2.35:1
Frame rate                       : 24.000 fps
Color space                      : YUV
Chroma subsampling               : 4:2:0
Bit depth                        : 8 bits
Scan type                        : Progressive
Bits/(Pixel*Frame)               : 0.239
Stream size                      : 2.68 GiB (89%)
Title                            : TEA_PETS_2017_WEB_DL_720p-BLUEBIRD
Language                         : English
Color primaries                  : BT.709-5, BT.1361, IEC 61966-2-4, SMPTE RP177
Transfer characteristics         : BT.709-5, BT.1361
Matrix coefficients              : BT.709-5, BT.1361, IEC 61966-2-4 709, SMPTE RP177

Audio
ID                               : 2
Format                           : AC-3
Format/Info                      : Audio Coding 3
Mode extension                   : CM (complete main)
Codec ID                         : A_AC3
Duration                         : 1h 37mn
Bit rate mode                    : Constant
Bit rate                         : 384 Kbps
Channel(s)                       : 6 channels
Channel positions                : Front: L C R, Side: L R, LFE
Sampling rate                    : 48.0 KHz
Bit depth                        : 16 bits
Compression mode                 : Lossy
Stream size                      : 268 MiB (9%)
Title                            : [DUB] DD 5.1 @ 384 kbps (iTunes)
Language                         : Russian

Menu
00:00:00.000                     : en:Глава 1
00:02:27.458                     : en:Глава 2
00:09:17.333                     : en:Глава 3
00:18:13.666                     : en:Глава 4
00:26:38.207                     : en:Глава 5
00:37:07.582                     : en:Глава 6
00:45:30.290                     : en:Глава 7
00:51:11.748                     : en:Глава 8
00:57:19.539                     : en:Глава 9
01:07:06.247                     : en:Глава 10
01:13:12.247                     : en:Глава 11
01:19:01.163                     : en:Глава 12
01:28:43.371                     : en:Глава 13



Скриншоты:
[+] Всего файлов в раздаче - 1:
Tea Pets.2017_Klayd X.mkv3.00 GB

Текущая раздача:
ДатаКомментарии    РазмерПиры
2018-12-13 U Тайна магазина игрушек / Tea Pets (2017) WEB-DLRip 720p | Локализованная версия | iTunes 3.00 GB ↑ 119 ↓ 47

Показать еще раздачи по запросу тайна:
2019-01-20 U Тайна дома с часами / The House with a Clock in Its Walls (2018) BDRip 1080p от Generalfilm | Лицензия 5.18 GB ↑ 102 ↓ 47
2019-01-19 U Тайна дома с часами / The House with a Clock in Its Walls (2018) HDRip от Scarabey | Лицензия 1.45 GB ↑ 101 ↓ 23
2019-01-17 U Тайна дома с часами / The House with a Clock in Its Walls (2018) BDRip-AVC от HELLYWOOD | Лицензия 2.18 GB ↑ 80 ↓ 42
2019-01-17 U Тайна дома с часами / The House with a Clock in Its Walls (2018) BDRip 720p от селезень | Лицензия 4.89 GB ↑ 103 ↓ 43
2019-01-17 U Тайна дома с часами / The House with a Clock in Its Walls (2018) BDRip 720p от HELLYWOOD | Лицензия 4.09 GB ↑ 63 ↓ 52
2019-01-17 U Тайна дома с часами / The House with a Clock in Its Walls (2018) BDRip 1080p от селезень | Лицензия 8.82 GB ↑ 171 ↓ 93
2019-01-17 U Тайна дома с часами / The House with a Clock in Its Walls (2018) BDRip от MegaPeer | Лицензия 1.46 GB ↑ 328 ↓ 127

Отзывы
Зарегистрируйтесь чтобы добавить комментарий.
Обратная связь
Copyleft ©