↑↓Torrent.by
Поиск
Логин: Регистрация
Пароль: Восстановить пароль
Загрузка...

Мстители: Финал / Avengers: Endgame (2019) HDRip 1080p | Тизер

Скачать mstiteli-final-avengers-endgame-2019-hdrip-1080p-tizer.torrent
U Магнитная ссылка Размер: 715.26 MB Раздают: 224 Качают: 69 Добавлен: 2018-12-13 14:54:04
Мстители: Финал / Avengers: Endgame (2019) HDRip 1080p | Тизер

«Part of the journey is the end»

Год выпуска: 2019
Производство: США / Marvel Studios Inc., Weta Digital, Legacy Effects
Жанр:  Фантастика, фэнтези, боевик, приключения

Режиссер: Энтони Руссо, Джо Руссо
Продюсеры: Кевин Файги, Виктория Алонсо, Митчелл Белл
Актеры: Бри Ларсон, Карен Гиллан, Брэдли Купер, Скарлетт Йоханссон, Эванджелин Лилли, Роберт Дауни мл., Джош Бролин, Крис Хемсворт, Джон Фавро, Крис Эванс

Описание:
Мстители и Стражи Галактики вступают в последнюю стадию войны с Таносом, владеющим всемогущей Перчаткой Бесконечности. Грядёт финальная битва между силами героев и Безумного Титана, которая раз и навсегда определит дальнейшую судьбу не только Земли, но и всей вселенной.

Перевод: Дублированный
Субтитры: Нет
Дата мировой премьеры: 24 апреля 2019
Дата российской премьеры: 25 апреля 2019, «WDSSPR»

 
Продолжительность: 00:02:33
Качество видео: HDRip 1080pВидео: H264, 1920x800 (2.40:1), 32,1 Мбит/сек
Аудио 1: MP3 2.0, 128 Кбит/сек [Русский - дублированный]
Аудио 2: PCM 5.1, 6912 Кбит/сек [Английский - оригинал]


[+] MediaInfo:
Общее
Уникальный идентификатор                 : 302060075394868473118645469262072525296 (0xE33EA7881D2D06C385085692F0FC31F0)
Полное имя                               : V:TorrentsAvengers. Endgame (2019) HDRip [1080p] Teaser.mkv
Формат                                   : Matroska
Версия формата                           : Version 4 / Version 2
Размер файла                             : 715 Мбайт
Продолжительность                        : 2 м. 42 с.
Общий поток                              : 37,0 Мбит/сек
Дата кодирования                         : UTC 2018-12-13 10:22:27
Программа кодирования                    : mkvmerge v29.0.0 ('Like It Or Not') 64-bit
Библиотека кодирования                   : libebml v1.3.6 + libmatroska v1.4.9

Видео
Идентификатор                            : 1
Формат                                   : AVC
Формат/Информация                        : Advanced Video Codec
Профиль формата                          : High@L4.1
Настройки формата                        : CABAC / 4 Ref Frames
Параметр CABAC формата                   : Да
Параметр RefFrames формата               : 4 кадра
Параметр GOP формата                     : M=3, N=25
Идентификатор кодека                     : V_MPEG4/ISO/AVC
Продолжительность                        : 2 м. 33 с.
Битрейт                                  : 32,1 Мбит/сек
Ширина                                   : 1920 пикселей
Высота                                   : 800 пикселей
Соотношение сторон                       : 2,40:1
Режим частоты кадров                     : Постоянный
Частота кадров                           : 23,976 (23976/1000) кадра/сек
Цветовое пространство                    : YUV
Субдискретизация насыщенности            : 4:2:0
Битовая глубина                          : 8 бит
Тип развёртки                            : Прогрессивная
Бит/(Пиксели*Кадры)                      : 0.872
Размер потока                            : 587 Мбайт (82%)
Default                                  : Да
Forced                                   : Нет

Аудио #1
Идентификатор                            : 2
Формат                                   : MPEG Audio
Версия формата                           : Version 1
Профиль формата                          : Layer 3
Настройки формата                        : Joint stereo
Режим                                    : Joint stereo
Идентификатор кодека                     : A_MPEG/L3
Идентификатор кодека/Подсказка           : MP3
Продолжительность                        : 2 м. 42 с.
Вид битрейта                             : Постоянный
Битрейт                                  : 128 Кбит/сек
Каналы                                   : 2 канала
Частота                                  : 44,1 КГц
Частота кадров                           : 38,281 кадров/сек (1152 SPF)
Метод сжатия                             : С потерями
Размер потока                            : 2,47 Мбайт (0%)
Заголовок                                : Dub
Язык                                     : Russian
Default                                  : Да
Forced                                   : Нет

Аудио #2
Идентификатор                            : 3
Формат                                   : PCM
Идентификатор кодека                     : A_PCM/INT/LIT
Продолжительность                        : 2 м. 33 с.
Вид битрейта                             : Постоянный
Битрейт                                  : 6912 Кбит/сек
Каналы                                   : 6 каналов
Частота                                  : 48,0 КГц
Частота кадров                           : 32,004 кадра/сек (1500 SPF)
Битовая глубина                          : 24 бит
Задержка видео                           : 27 мс.
Размер потока                            : 126 Мбайт (18%)
Язык                                     : English
Default                                  : Нет
Forced                                   : Нет




Скриншоты:
[+] Всего файлов в раздаче - 1:
Avengers. Endgame (2019) HDRip [1080p] Teaser.mkv715.26 MB

Показать еще раздачи по запросу мстители:
2019-05-24 U Мстители: Финал / Avengers: Endgame (2019) TC | Proper | Line 2.75 GB ↑ 100 ↓ 172
2019-05-23 U Мстители: Финал / Avengers: Endgame (2019) TC от Dalemake | Line 2.19 GB ↑ 125 ↓ 133
2019-05-11 U Мстители: Финал / Avengers: Endgame (2019) TC | Proper | SUB 2.19 GB ↑ 603 ↓ 104
2019-05-10 U Мстители: Война бесконечности / Avengers: Infinity War (2018) HDRip от Scarabey | D | Open Matte 2.18 GB ↑ 101 ↓ 20
2019-05-07 U Мстители: Война бесконечности / Avengers: Infinity War (2018) HybridRip-HEVC 1080p от M@kSIMus | D | Open Matte 9.97 GB ↑ 65 ↓ 32
2019-03-15 U Мстители: Финал / Avengers: Endgame (2019) WEBRip 1080p | Трейлер №2 631.47 MB ↑ 155 ↓ 49
2019-01-05 U Мстители: Война бесконечности / Avengers: Infinity War (2018) HybridRip-HEVC 1080p от M@kSIMus | D | Open Matte 7.02 GB ↑ 139 ↓ 17

Отзывы
Зарегистрируйтесь чтобы добавить комментарий.
Обратная связь
Copyleft ©