↑↓Torrent.by
Поиск
Логин: Регистрация
Пароль: Восстановить пароль
Загрузка...

Несокрушимый (2018) WEB-DL 1080p | iTunes

Скачать nesokrushimyy-2018-web-dl-1080p-itunes.torrent
U Магнитная ссылка Размер: 3.11 GB Раздают: 833 Качают: 351 Добавлен: 2018-12-15 06:24:15
Несокрушимый (2018) WEB-DL 1080p | iTunes

Название: Несокрушимый
Год выпуска: 2018
Жанр:  Военный, история, драма
Режиссёр: Константин Максимов
В ролях: Андрей Чернышов, Владимир Епифанцев, Олег Фомин, Ольга Погодина, Сергей Горобченко, Николай Добрынин, Василий Седых, Владимир Кочетков, Дмитрий Золотухин, Олег Чудницов

Описание:
В основе фильма реальная история уникального подвига экипажа танка «КВ-1». Приняв неравный бой, экипаж Семена Коновалова уничтожил 16 танков, 2 бронемашины и 8 автомашин с живой силой противника в районе хутора Нижнемитякин Тарасовского района Ростовской области.
Это история не плакатных героев, а разбитных, веселых, очень разных парней, которые просто хотели жить, но в решающую минуту сумели принять единственно верное решение и совершить подвиг достойный легенды.

Страна: Россия
Студия: ПимановФильм
Продолжительность: 01:29:34
Язык: Русский

Файл
Формат: MKV
Качество: WEB-DL 1080p
Видео: 1920x804 (2,40:1), 24 fps, MPEG-4 AVC ~ 4578 kbps avg, 0.124 bit/pixel
Звук: AC3, 48 kHz, 6 ch, ~384.00 kbps avg | русский | iTunes

Субтитры: Отсутствуют


[+] Инфо-файл
Общее
Уникальный идентификатор                 : 78842580728286345585229925695026481695 (0x3B508759A7056F24AE5E1790B7EDCA1F)
Полное имя                               : D:TorrentsЗавершенныеNESOKRUSHIMYI (2018) WEB-DL 1080p).mkv
Формат                                   : Matroska
Версия формата                           : Version 4 / Version 2
Размер файла                             : 3,11 Гбайт
Продолжительность                        : 1 ч. 29 м.
Общий поток                              : 4963 Кбит/сек
Название фильма                          : NESOKRUSHIMYI (2018) WEB-DL 1080p
Дата кодирования                         : UTC 2018-12-14 21:00:26
Программа кодирования                    : mkvmerge v27.0.0 ('Metropolis') 64-bit
Библиотека кодирования                   : libebml v1.3.6 + libmatroska v1.4.9

Видео
Идентификатор                            : 1
Формат                                   : AVC
Формат/Информация                        : Advanced Video Codec
Профиль формата                          : High@L4
Настройки формата                        : CABAC / 5 Ref Frames
Параметр CABAC формата                   : Да
Параметр RefFrames формата               : 5 кадров
Идентификатор кодека                     : V_MPEG4/ISO/AVC
Продолжительность                        : 1 ч. 29 м.
Битрейт                                  : 4578 Кбит/сек
Ширина                                   : 1920 пикселей
Высота                                   : 804 пикселя
Соотношение сторон                       : 2,40:1
Режим частоты кадров                     : Постоянный
Частота кадров                           : 24,000 кадра/сек
Цветовое пространство                    : YUV
Субдискретизация насыщенности            : 4:2:0
Битовая глубина                          : 8 бит
Тип развёртки                            : Прогрессивная
Бит/(Пиксели*Кадры)                      : 0.124
Размер потока                            : 2,86 Гбайт (92%)
Заголовок                                : NESOKRUSHIMYI (2018) WEB-DL 1080p
Язык                                     : English
Default                                  : Да
Forced                                   : Нет
Цветовой диапазон                        : Limited
Основные цвета                           : BT.709
Характеристики трансфера                 : BT.709
Коэффициенты матрицы                     : BT.709

Аудио
Идентификатор                            : 2
Формат                                   : AC-3
Формат/Информация                        : Audio Coding 3
Идентификатор кодека                     : A_AC3
Продолжительность                        : 1 ч. 29 м.
Вид битрейта                             : Постоянный
Битрейт                                  : 384 Кбит/сек
Каналы                                   : 6 каналов
Расположение каналов                     : Front: L C R, Side: L R, LFE
Частота                                  : 48,0 КГц
Частота кадров                           : 31,250 кадров/сек (1536 SPF)
Битовая глубина                          : 16 бит
Метод сжатия                             : С потерями
Размер потока                            : 246 Мбайт (8%)
Заголовок                                : iTunes
Язык                                     : Russian
Default                                  : Да
Forced                                   : Нет

Меню
00:00:00.000                             : en:Глава 1
00:10:00.000                             : en:Глава 2
00:18:14.500                             : en:Глава 3
00:26:52.333                             : en:Глава 4
00:35:36.166                             : en:Глава 5
00:43:44.291                             : en:Глава 6
00:52:31.166                             : en:Глава 7
01:00:54.666                             : en:Глава 8
01:09:30.624                             : en:Глава 9
01:17:36.249                             : en:Глава 10




Скриншоты:
[+] Всего файлов в раздаче - 1:
NESOKRUSHIMYI (2018) WEB-DL 1080p).mkv3.11 GB

Текущая раздача:
ДатаКомментарии    РазмерПиры
2018-12-15 U Несокрушимый (2018) WEB-DL 1080p | iTunes 3.11 GB ↑ 833 ↓ 351

Показать еще раздачи по запросу несокрушимый:
2018-12-18 U Несокрушимый (2018) WEB-DL 720p | iTunes 2.75 GB ↑ 188 ↓ 98
2018-12-18 U Несокрушимый (2018) WEB-DLRip от Scarabey | iTunes 1К1.45 GB ↑ 99 ↓ 66
2018-12-16 U Несокрушимый (2018) WEB-DLRip от Generalfilm | КПК | iTunes 340.76 MB ↑ 94 ↓ 21
2018-12-15 U Несокрушимый (2018) WEB-DLRip-AVC от OlLanDGroup | iTunes 1К746.28 MB ↑ 187 ↓ 57
2018-12-15 U Несокрушимый (2018) WEB-DLRip-AVC от OlLanDGroup | iTunes 1.46 GB ↑ 414 ↓ 159
2018-12-15 U Несокрушимый (2018) WEB-DLRip от GeneralFilm | iTunes 744.36 MB ↑ 307 ↓ 85
2018-12-15 U Несокрушимый (2018) WEB-DLRip от MegaPeer | iTunes 1.46 GB ↑ 561 ↓ 249

Отзывы
Зарегистрируйтесь чтобы добавить комментарий.
Обратная связь
Copyleft ©