↑↓Torrent.by
Поиск
Логин: Регистрация
Пароль: Восстановить пароль
Загрузка...

Личные счеты (2018) WEB-DLRip от GeneralFilm

Скачать lichnye-schety-2018-web-dlrip-ot-generalfilm.torrent
U Магнитная ссылка Размер: 745.14 MB Раздают: 51 Качают: 5 Добавлен: 2018-12-17 02:16:46
Личные счеты (2018) WEB-DLRip от GeneralFilm

Оригинальное название: Личные счеты
Год выпуска: 2018
Жанр:  Мелодрама
Выпущено: Россия, Star Media
Режиссер: Алина Чеботарёва
В ролях: Ирина Таранник, Михаил Химичев, Александр Никитин, Нина Гогаева, Екатерина Долгова, Анастасия Чепелюк, Татьяна Виноградова, Никита Абдулов

О фильме: Жизнь Инны была похожа на сбывшуюся сказку, но случилась трагедия. В автокатастрофе погибают ее родители, и Инна теряет ребенка. Проходит три месяца, но она все еще так и не в силах справиться с депрессией. Перебирая документы, Инна случайно находит свидетельство о рождении девушки, носящей девичью фамилию ее матери. Так Инна узнает, что все это время у нее была сводная сестра – Яна. Теперь она – единственный родной человек. Инна решает разыскать сестру. Но Яна оказывается полной противоположностью воспитанной, образованной и изысканной Инны. Она - грубая и прямолинейная, выросла в деревне с теткой практически в нищете, теперь работает в обычной парикмахерской. А еще Яна до сих пор обижена на мать, которая бросила ее ради отца Инны. Инна надеется искупить вину матери – приглашает сестру в свой дом, одаривает подарками, устраивает на работу в престижный салон красоты. Она даже обещает со временем помочь Яне купить собственный салон… Но энтузиазм Инны не разделяет ее муж Вадим, он предупреждает – в ответ на свою доброту и великодушие, Инна получит от сестры лишь черную неблагодарность… Да и как может быть по-другому, когда на кону - большое наследство?..

Качество: WEB-DLRip
Видео: XviD build 73, 656x368 (16:9), 25.000 fps, 987 Kbps (~ 0.164 bit/pixel)
Аудио: 48.0 kHz, MP3, 2/0 ch, 128 kbps
Продолжительность: 01:32:38
Перевод: Не требуется
Cубтитры: нет

Релиз:


[+] MediaInfo

General
Complete name               : D:RazdachiLichnye.Schety.2018.XviD.WEB-DLRip.GeneralFilm.avi
Format                      : AVI
Format/Info                 : Audio Video Interleave
File size                   : 745 MiB
Duration                    : 1 h 32 min
Overall bit rate            : 1 125 kb/s
Writing application         : VirtualDubMod 1.5.10.3 | www.virtualdub-fr.org || (build 2550/release)
Writing library             : VirtualDubMod build 2550/release

Video
ID                          : 0
Format                      : MPEG-4 Visual
Format profile              : Advanced Simple@L5
Format settings, BVOP       : 1
Format settings, QPel       : No
Format settings, GMC        : No warppoints
Format settings, Matrix     : Custom
Codec ID                    : XVID
Codec ID/Hint               : XviD
Duration                    : 1 h 32 min
Bit rate                    : 987 kb/s
Width                       : 656 pixels
Height                      : 368 pixels
Display aspect ratio        : 16:9
Frame rate                  : 25.000 FPS
Color space                 : YUV
Chroma subsampling          : 4:2:0
Bit depth                   : 8 bits
Scan type                   : Progressive
Compression mode            : Lossy
Bits/(Pixel*Frame)          : 0.164
Stream size                 : 654 MiB (88%)
Writing library             : XviD 73

Audio
ID                          : 1
Format                      : MPEG Audio
Format version              : Version 1
Format profile              : Layer 3
Codec ID                    : 55
Codec ID/Hint               : MP3
Duration                    : 1 h 32 min
Bit rate mode               : Constant
Bit rate                    : 128 kb/s
Channel(s)                  : 2 channels
Sampling rate               : 48.0 kHz
Compression mode            : Lossy
Stream size                 : 84.8 MiB (11%)
Alignment                   : Aligned on interleaves
Interleave, duration        : 40  ms (1.00 video frame)
Interleave, preload duratio : 504  ms
Writing library             : LAME3.99r
Encoding settings           : -m s -V 4 -q 2 -lowpass 17 -b 128



Скриншоты:
[+] Всего файлов в раздаче - 1:
Lichnye.Schety.2018.XviD.WEB-DLRip.GeneralFilm.avi745.14 MB

Текущая раздача:
ДатаКомментарии    РазмерПиры
2018-12-17 U Личные счеты (2018) WEB-DLRip от GeneralFilm 745.14 MB ↑ 51 ↓ 5

Похожие раздачи по запросу - личные:
2018-12-17 U Личные счеты (2018) WEB-DLRip от Files-x 1.37 GB ↑ 35 ↓ 12
2018-12-17 U Личные счеты (2018) WEB-DLRip-AVC от Files-x 1.37 GB ↑ 25 ↓ 4
2018-12-16 U Личные счеты (2018) WEB-DLRip от MegaPeer 1.46 GB ↑ 137 ↓ 43
2018-12-16 U Личные счеты (2018) HDTVRip 720p от MediaClub 2.66 GB ↑ 188 ↓ 50

Отзывы
Зарегистрируйтесь чтобы добавить комментарий.
Обратная связь
Copyleft ©