↑↓Torrent.by
Поиск
Логин: Регистрация
Пароль: Восстановить пароль
Загрузка...

Белый клык / Croc-Blanc (2018) BDRip 1080p | L1

Скачать belyy-klyk-croc-blanc-2018-bdrip-1080p-l1.torrent
U Магнитная ссылка Размер: 4.07 GB Раздают: 83 Качают: 27 Добавлен: 2018-12-17 03:11:38
Белый клык / Croc-Blanc (2018) BDRip 1080p | L1

Название: Белый клык
Оригинальное название: Croc-Blanc / White Fang
Год выхода: 2018
Жанр: Мультфильм, приключения
Режиссер: Александр Эспигарес
В ролях: Ник Офферман, Рашида Джонс, Пол Джаматти, Флула Борг, Стив Гликман, Доминик Пинон, Виржини Эфира, Эдди Спирс, Рафаэль Персонас, Дэвид Боат

О фильме:
Родители Белого Клыка — домашняя собака Кичи и дикий волк. Проведя детство в заснеженных пустошах дальнего севера, Белый Клык попадает в руки индейца по имени Серый Бобр, который когда то был хозяином Кичи. Жестокий и коварный Красавчик Смит заставляет продать ему Белого Клыка, и тогда жизнь животного превращается в ад, что сильно ожесточает его. Спасает собаку молодой человек по имени Уидон Скотт. Его доброта заставляет Белого Клыка учиться сдерживать свои дикие инстинкты и стараться стать окружающим другом.

Страна: Франция, Люксембург, США
Студия: Angoa, B Media Kids, Backup Media, CN5 Productions, France Télévisions, Wild Bunch, Superprod
Продолжительность: 01:27:18
Перевод: Любительский одноголосый | Хихидок

Файл
Кодек: x.264
Качество: BDRip 1080p | Croc-Blanc.2018.DANISH.1080p.BluRay.X264-iNVANDRAREN
Видео: MPEG-4 AVC, 5655 Kбит/с, 1920x808, 24.000 кадр/с
Звук: Небольшая звук. реклама в конце м.ф. в титрах
Аудио #1: Русский ( АС3, 2ch, 256 Кбит/с, 48.0 KHz) Любительский (одноголосый, закадровый) Хихикающий доктор
Аудио #2: Английский ( АС3, 6ch, 384 Кбит/с, 48.0 KHz)
Аудио #3: Датскский ( АС3, 6ch, 384 Кбит/с, 48.0 KHz)
Субтитры: Pусские, английские


[+] MediaInfo
Источник: Croc-Blanc.2018.DANISH.1080p.BluRay.X264-iNVANDRAREN
General
Unique ID                      : 196217547532183454982769985784730797469 (0x939E2002A9EC55859619D7BBBD52C59D)
Complete name                  : White.Fang.2018.BDRip.1080p.mkv
Format                         : Matroska
Format version                 : Version 4
File size                      : 4.07 GiB
Duration                       : 1 h 27 min
Overall bit rate               : 6 682 kb/s
Encoded date                   : UTC 2018-11-22 12:33:44
Writing application            : mkvmerge v7.1.0 ('Good Love') 64bit built on Jul 27 2014 13:06:55
Writing library                : libebml v1.3.0 + libmatroska v1.4.1

Video
ID                             : 1
Format                         : AVC
Format/Info                    : Advanced Video Codec
Format profile                 : High@L4.1
Format settings                : CABAC / 5 Ref Frames
Format settings, CABAC         : Yes
Format settings, ReFrames      : 5 frames
Codec ID                       : V_MPEG4/ISO/AVC
Duration                       : 1 h 27 min
Bit rate                       : 5 655 kb/s
Width                          : 1 920 pixels
Height                         : 808 pixels
Display aspect ratio           : 2.40:1
Frame rate mode                : Constant
Frame rate                     : 24.000 FPS
Color space                    : YUV
Chroma subsampling             : 4:2:0
Bit depth                      : 8 bits
Scan type                      : Progressive
Bits/(Pixel*Frame)             : 0.152
Stream size                    : 3.45 GiB (85%)
Writing library                : x264 core 157 r2935 545de2f
Encoding settings              : cabac=1 / ref=5 / deblock=1:0:0 / analyse=0x3:0x133 / me=umh / subme=8 / psy=1 / psy_rd=1.00:0.00 / mixed_ref=1 / me_range=16 / chroma_me=1 / trellis=2 / 8x8dct=1 / cqm=0 / deadzone=21,11 / fast_pskip=0 / chroma_qp_offset=-2 / threads=18 / lookahead_threads=3 / sliced_threads=0 / nr=0 / decimate=1 / interlaced=0 / bluray_compat=0 / constrained_intra=0 / bframes=3 / b_pyramid=2 / b_adapt=1 / b_bias=0 / direct=3 / weightb=1 / open_gop=0 / weightp=2 / keyint=250 / keyint_min=24 / scenecut=40 / intra_refresh=0 / rc_lookahead=50 / rc=2pass / mbtree=1 / bitrate=5655 / ratetol=1.0 / qcomp=0.60 / qpmin=0 / qpmax=69 / qpstep=4 / cplxblur=20.0 / qblur=0.5 / ip_ratio=1.40 / aq=1:1.00
Language                       : Danish
Default                        : Yes
Forced                         : No

Audio #1
ID                             : 2
Format                         : AC-3
Format/Info                    : Audio Coding 3
Commercial name                : Dolby Digital
Codec ID                       : A_AC3
Duration                       : 1 h 27 min
Bit rate mode                  : Constant
Bit rate                       : 256 kb/s
Channel(s)                     : 2 channels
Channel layout                 : L R
Sampling rate                  : 48.0 kHz
Frame rate                     : 31.250 FPS (1536 SPF)
Bit depth                      : 16 bits
Compression mode               : Lossy
Stream size                    : 160 MiB (4%)
Language                       : Russian
Service kind                   : Complete Main
Default                        : Yes
Forced                         : No

Audio #2
ID                             : 3
Format                         : AC-3
Format/Info                    : Audio Coding 3
Commercial name                : Dolby Digital
Codec ID                       : A_AC3
Duration                       : 1 h 27 min
Bit rate mode                  : Constant
Bit rate                       : 384 kb/s
Channel(s)                     : 6 channels
Channel layout                 : L R C LFE Ls Rs
Sampling rate                  : 48.0 kHz
Frame rate                     : 31.250 FPS (1536 SPF)
Bit depth                      : 16 bits
Compression mode               : Lossy
Stream size                    : 240 MiB (6%)
Language                       : English
Service kind                   : Complete Main
Default                        : No
Forced                         : No

Audio #3
ID                             : 4
Format                         : AC-3
Format/Info                    : Audio Coding 3
Commercial name                : Dolby Digital
Codec ID                       : A_AC3
Duration                       : 1 h 27 min
Bit rate mode                  : Constant
Bit rate                       : 384 kb/s
Channel(s)                     : 6 channels
Channel layout                 : L R C LFE Ls Rs
Sampling rate                  : 48.0 kHz
Frame rate                     : 31.250 FPS (1536 SPF)
Bit depth                      : 16 bits
Compression mode               : Lossy
Stream size                    : 240 MiB (6%)
Language                       : Danish
Service kind                   : Complete Main
Default                        : No
Forced                         : No

Text #1
ID                             : 5
Format                         : UTF-8
Codec ID                       : S_TEXT/UTF8
Codec ID/Info                  : UTF-8 Plain Text
Duration                       : 1 h 23 min
Bit rate                       : 43 b/s
Count of elements              : 545
Stream size                    : 26.6 KiB (0%)
Language                       : Russian
Default                        : No
Forced                         : No

Text #2
ID                             : 6
Format                         : UTF-8
Codec ID                       : S_TEXT/UTF8
Codec ID/Info                  : UTF-8 Plain Text
Duration                       : 1 h 24 min
Bit rate                       : 36 b/s
Count of elements              : 859
Stream size                    : 22.4 KiB (0%)
Language                       : English
Default                        : No
Forced                         : No

Menu
00:00:00.000                   : :00:00:00.000
00:10:19.542                   : :00:10:19.542
00:20:17.625                   : :00:20:17.625
00:30:58.583                   : :00:30:58.583
00:40:19.042                   : :00:40:19.042
00:50:16.292                   : :00:50:16.292
01:00:48.583                   : :01:00:48.583
01:11:47.083                   : :01:11:47.083



Скриншоты:
[+] Всего файлов в раздаче - 1:
White.Fang.2018.BDRip.1080p.mkv4.07 GB

Показать еще раздачи по запросу белый:
2019-03-10 U Белый парень Рик / White Boy Rick (2018) BDRip 1080p от OlLanDGroup | HDRezka Studio 9.49 GB ↑ 520 ↓ 255
2019-02-17 U Белый парень Рик / White Boy Rick (2018) WEBRip 720p | LakeFilms 2.10 GB ↑ 198 ↓ 66
2019-02-17 U Белый парень Рик / White Boy Rick (2018) WEBRip 1080p | LakeFilms 4.08 GB ↑ 348 ↓ 151
2019-02-17 U Белый парень Рик / White Boy Rick (2018) WEBRip | LakeFilms 1.35 GB ↑ 28 ↓ 102
2019-01-16 U Белый парень Рик / White Boy Rick (2018) HDRip от ExKinoRay | UKR, Sub 1.46 GB ↑ 98 ↓ 48
2018-09-01 U Белый клык / Croc-Blanc / White Fang (2018) WEBRip | L1 1.25 GB ↑ 256 ↓ 52
2018-08-13 U Черная кошка, белый кот / Crna mačka, beli mačor (1998) WEB-DL 1080p | P, P2, A 7.79 GB ↑ 41 ↓ 13

Отзывы
Зарегистрируйтесь чтобы добавить комментарий.
Обратная связь
Copyleft ©