↑↓Torrent.by
Поиск
Логин: Регистрация
Пароль: Восстановить пароль
Загрузка...

Несокрушимый (2018) WEB-DL 720p | iTunes

Скачать nesokrushimyy-2018-web-dl-720p-itunes.torrent
U Магнитная ссылка Размер: 2.75 GB Раздают: 189 Качают: 102 Добавлен: 2018-12-18 14:58:07
Несокрушимый (2018) WEB-DL 720p | iTunes

Название: Несокрушимый
Год выхода: 2018
Жанр: военный, история, драма
Режиссер: Константин Максимов
В ролях: Андрей Чернышов, Владимир Епифанцев, Олег Фомин, Ольга Погодина, Сергей Горобченко, Николай Добрынин, Василий Седых, Владимир Кочетков, Дмитрий Золотухин, Олег Чудницов

О фильме:
В основе фильма реальная история уникального подвига экипажа танка «КВ-1». Приняв неравный бой, экипаж Семена Коновалова уничтожил 16 танков, 2 бронемашины и 8 автомашин с живой силой противника в районе хутора Нижнемитякин Тарасовского района Ростовской области. Это история не плакатных героев, а разбитных, веселых, очень разных парней, которые просто хотели жить, но в решающую минуту сумели принять единственно верное решение и совершить подвиг достойный легенды.

Страна: Россия
Студия: ПимановФильм
Продолжительность: 01:29:34
Перевод: не требуется

Файл
Кодек: H.264
Качество: WEB-DL 720p
Видео: AVC, 1280x536 (2.40:1), 24 fps ~ 3930 Kbps
Звук: AC3, 48 KHz, 6 ch ~ 384 Kb/s
Субтитры: отсутствуют


[+] MI:

Общее
Уникальный идентификатор : 185003742663607619577099106852681029536 (0x8B2E6CBE829DA6899EAAAF56F92017A0)
Полное имя : Q:TorFНесокрушимый.2O18.O.WEB-DL.72Op.mkv
Формат : Matroska
Версия формата : Version 2
Размер файла : 2,75 Гбайт
Продолжительность : 1 ч. 29 м.
Общий поток : 4403 Кбит/сек
Дата кодирования : UTC 2018-12-14 19:12:11
Программа кодирования : mkvmerge v8.3.0 ('Over the Horizon') 64bit
Библиотека кодирования : libebml v1.3.1 + libmatroska v1.4.2
DURATION : 01:29:34.304000000
NUMBER_OF_FRAMES : 167947
NUMBER_OF_BYTES : 257966592
_STATISTICS_WRITING_APP : mkvmerge v8.3.0 ('Over the Horizon') 64bit
_STATISTICS_WRITING_DATE_UTC : 2018-12-14 19:12:11
_STATISTICS_TAGS : BPS DURATION NUMBER_OF_FRAMES NUMBER_OF_BYTES

Видео
Идентификатор : 1
Формат : AVC
Формат/Информация : Advanced Video Codec
Профиль формата : Main@L3.1
Параметр CABAC формата : Нет
Параметр ReFrames формата : 2 кадра
Идентификатор кодека : V_MPEG4/ISO/AVC
Продолжительность : 1 ч. 29 м.
Битрейт : 3931 Кбит/сек
Ширина : 1280 пикселей
Высота : 536 пикселей
Соотношение сторон : 2,40:1
Частота кадров : 24,000 кадра/сек
Цветовое пространство : YUV
Субдискретизация насыщенности : 4:2:0
Битовая глубина : 8 бит
Тип развёртки : Прогрессивная
Бит/(Пиксели*Кадры) : 0.239
Размер потока : 2,46 Гбайт (89%)
Язык : English
Default : Да
Forced : Нет
Основные цвета : BT.709-5, BT.1361, IEC 61966-2-4, SMPTE RP177
Характеристики трансфера : BT.709-5, BT.1361
Коэффициенты матрицы : BT.709-5, BT.1361, IEC 61966-2-4 709, SMPTE RP177

Аудио
Идентификатор : 2
Формат : AC-3
Формат/Информация : Audio Coding 3
Расширение режима : CM (complete main)
Идентификатор кодека : A_AC3
Продолжительность : 1 ч. 29 м.
Вид битрейта : Постоянный
Битрейт : 384 Кбит/сек
Каналы : 6 каналов
Расположение каналов : Front: L C R, Side: L R, LFE
Частота : 48,0 КГц
Битовая глубина : 16 бит
Метод сжатия : С потерями
Размер потока : 246 Мбайт (9%)
Язык : Russian
Default : Да
Forced : Нет

Меню
00:00:00.000 : en:Глава 1
00:10:00.000 : en:Глава 2
00:18:14.500 : en:Глава 3
00:26:52.333 : en:Глава 4
00:35:36.166 : en:Глава 5
00:43:44.291 : en:Глава 6
00:52:31.166 : en:Глава 7
01:00:54.666 : en:Глава 8
01:09:30.624 : en:Глава 9
01:17:36.249 : en:Глава 10



Скриншоты:
[+] Всего файлов в раздаче - 1:
Несокрушимый.2O18.O.WEB-DL.72Op.mkv2.75 GB

Текущая раздача:
ДатаКомментарии    РазмерПиры
2018-12-18 U Несокрушимый (2018) WEB-DL 720p | iTunes 2.75 GB ↑ 189 ↓ 102

Показать еще раздачи по запросу несокрушимый:
2018-12-18 U Несокрушимый (2018) WEB-DLRip от Scarabey | iTunes 1К1.45 GB ↑ 107 ↓ 68
2018-12-16 U Несокрушимый (2018) WEB-DLRip от Generalfilm | КПК | iTunes 340.76 MB ↑ 94 ↓ 21
2018-12-15 U Несокрушимый (2018) WEB-DLRip-AVC от OlLanDGroup | iTunes 1К746.28 MB ↑ 187 ↓ 58
2018-12-15 U Несокрушимый (2018) WEB-DLRip-AVC от OlLanDGroup | iTunes 1.46 GB ↑ 438 ↓ 161
2018-12-15 U Несокрушимый (2018) WEB-DLRip от GeneralFilm | iTunes 744.36 MB ↑ 323 ↓ 86
2018-12-15 U Несокрушимый (2018) WEB-DLRip от MegaPeer | iTunes 1.46 GB ↑ 579 ↓ 251
2018-12-15 U Несокрушимый (2018) WEB-DL 1080p | iTunes 3.11 GB ↑ 874 ↓ 354

Отзывы
Зарегистрируйтесь чтобы добавить комментарий.
Обратная связь
Copyleft ©