↑↓Torrent.by
Поиск
Логин: Регистрация
Пароль: Восстановить пароль
Загрузка...

Бомба (1997) DVDRip-AVC | Лицензия

Скачать bomba-1997-dvdrip-avc-licenziya.torrent
U Магнитная ссылка Размер: 1.54 GB Раздают: 307 Качают: 102 Добавлен: 2018-12-19 09:56:52
Бомба (1997) DVDRip-AVC | Лицензия

Название: Бомба
Год выхода: 1997
Жанр: комедия, эротика
Режиссер: Дмитрий Месхиев
В ролях: Виктор Бычков, Александр Половцев, Юрий Кузнецов, Ольга Толстецкая, Василина Стрельникова, Ольга Тарасенко

О фильме: Легкая эксцентрическая комедия с участием замечательных актеров об особенностях национального секса в революционной России.Россия, начало 20 века. Смекалистые революционеры-подпольщики изобрели аппарат, улавливающий сексуальные импульсы. Это позволит использовать эротическую энергию для дела революции - а не расточать в плотских утехах, как несознательная буржуазия. Революционеры начинают работу по созданию секс-бомбы, оружия страшной разрушительной силы...

Страна: Россия / Никола Фильм
Продолжительность: 01:12:37
Перевод: не требуется [Лицензия]

Файл
Качество: DVDRip-AVC
Формат: MKV
Видео: MPEG-4 AVC/H.264, 2600 Кбит/сек, [email protected]
Звук: AC3, 6 ch, 448 Кбит/сек
Субтитры: русские [вшитые отключаемые]
Дополнительно: Сохранены оригинальные главы (чаптеры)

Семпл


[+] MediaInfo:
Общее
Уникальный идентификатор                 : 306299706772983058821946769831600424061 (0xE66F2D7F4308E2E55F081914E38D847D)
Полное имя                               : F:Диск2. ФИЛЬМЫ СНГБомба (1997)Bomba.1997.DVDRip-AVC.mkv
Формат                                   : Matroska
Версия формата                           : Version 4
Размер файла                             : 1,54 Гбайт
Продолжительность                        : 1 ч. 12 м.
Общий поток                              : 3041 Кбит/сек
Дата кодирования                         : UTC 2018-12-18 09:13:07
Программа кодирования                    : mkvmerge v29.0.0 ('Like It Or Not') 64-bit
Библиотека кодирования                   : libebml v1.3.6 + libmatroska v1.4.9 / Lavf57.71.100
Авторское право                          : [#ZsU®]
ENCODING_INFO                            : DVD > MKV Пользовательский / MPEG2 > X264 ABR 2600kbps HQ / MP2 > AC3 CBR 256kbps

Видео
Идентификатор                            : 1
Формат                                   : AVC
Формат/Информация                        : Advanced Video Codec
Профиль формата                          : High@L4.1
Настройки формата                        : CABAC / 11 Ref Frames
Параметр CABAC формата                   : Да
Параметр RefFrames формата               : 11 кадров
Идентификатор кодека                     : V_MPEG4/ISO/AVC
Продолжительность                        : 1 ч. 12 м.
Битрейт                                  : 2600 Кбит/сек
Ширина                                   : 720 пикселей
Высота                                   : 576 пикселей
Соотношение сторон                       : 4:3
Режим частоты кадров                     : Постоянный
Частота кадров                           : 24,000 кадра/сек
Цветовое пространство                    : YUV
Субдискретизация насыщенности            : 4:2:0
Битовая глубина                          : 8 бит
Тип развёртки                            : Прогрессивная
Бит/(Пиксели*Кадры)                      : 0.261
Размер потока                            : 1,31 Гбайт (85%)
Библиотека кодирования                   : x264 core 157 r2935M 545de2f
Настройки программы                      : cabac=1 / ref=12 / deblock=1:-3:-3 / analyse=0x3:0x133 / me=umh / subme=11 / psy=1 / psy_rd=1.00:0.20 / mixed_ref=1 / me_range=32 / chroma_me=1 / trellis=2 / 8x8dct=1 / cqm=0 / deadzone=21,11 / fast_pskip=1 / chroma_qp_offset=-3 / threads=12 / lookahead_threads=1 / sliced_threads=0 / nr=0 / decimate=1 / interlaced=0 / bluray_compat=0 / constrained_intra=0 / bframes=12 / b_pyramid=1 / b_adapt=1 / b_bias=10 / direct=1 / weightb=1 / open_gop=0 / weightp=1 / keyint=240 / keyint_min=24 / scenecut=40 / intra_refresh=0 / rc_lookahead=40 / rc=abr / mbtree=1 / bitrate=2600 / ratetol=1.0 / qcomp=0.60 / qpmin=0 / qpmax=69 / qpstep=4 / ip_ratio=1.40 / aq=1:1.00
Язык                                     : Russian
Default                                  : Да
Forced                                   : Нет
Цветовой диапазон                        : Limited
Основные цвета                           : BT.709
Характеристики трансфера                 : BT.709
Коэффициенты матрицы                     : BT.709

Аудио
Идентификатор                            : 2
Формат                                   : AC-3
Формат/Информация                        : Audio Coding 3
Коммерческое название                    : Dolby Digital
Идентификатор кодека                     : A_AC3
Продолжительность                        : 1 ч. 12 м.
Вид битрейта                             : Постоянный
Битрейт                                  : 448 Кбит/сек
Каналы                                   : 6 каналов
Channel layout                           : L R C LFE Ls Rs
Частота                                  : 48,0 КГц
Частота кадров                           : 31,250 кадров/сек (1536 SPF)
Битовая глубина                          : 16 бит
Метод сжатия                             : С потерями
Размер потока                            : 233 Мбайт (15%)
Язык                                     : Russian
Default                                  : Да
Forced                                   : Нет

Текст
Идентификатор                            : 3
Формат                                   : UTF-8
Идентификатор кодека                     : S_TEXT/UTF8
Идентификатор кодека/Информация          : UTF-8 Plain Text
Продолжительность                        : 1 ч. 10 м.
Битрейт                                  : 73 бит/сек
ElementCount                             : 805
Размер потока                            : 37,9 Кбайт (0%)
Язык                                     : Russian
Default                                  : Да
Forced                                   : Нет

Меню
00:00:00.000                             : :Глава 1
00:10:00.520                             : :Глава 2
00:20:00.520                             : :Глава 3
00:30:00.520                             : :Глава 4
00:40:00.520                             : :Глава 5
00:50:00.520                             : :Глава 6
01:00:00.520                             : :Глава 7
01:10:00.520                             : :Глава 8



Скриншоты:
[+] Всего файлов в раздаче - 1:
Bomba.1997.DVDRip-AVC.mkv1.54 GB

Текущая раздача:
ДатаКомментарии    РазмерПиры
2018-12-19 U Бомба (1997) DVDRip-AVC | Лицензия 1.54 GB ↑ 307 ↓ 102

Показать еще раздачи по запросу бомба:
2018-12-19 U Бомба (1997) DVDRip 1.10 GB ↑ 106 ↓ 40
2018-10-19 U Сборник - Бомба года русский выпуск Vol.9 (2018) MP3 857.45 MB ↑ 186 ↓ 72
2018-04-07 U Город-бомба / Bomb City (2017) HDRip от Scarabey | HDrezka Studio 1.45 GB ↑ 35 ↓ 15
2018-04-07 U Город-бомба / Bomb City (2017) HDRip от MegaPeer | HDrezka Studio 744.92 MB ↑ 125 ↓ 16
2018-04-05 U Город-бомба / Bomb City (2017) HDRip от MegaPeer | HDrezka Studio 1.46 GB ↑ 309 ↓ 61
2018-04-05 U Город-бомба / Bomb City (2017) BDRip 1080p от MediaClub | HDrezka Studio 9.56 GB ↑ 142 ↓ 49
2018-02-23 U Город-бомба / Bomb City (2017) WEB-DL 1080p | L 3.68 GB ↑ 156 ↓ 66

Отзывы
Зарегистрируйтесь чтобы добавить комментарий.
Обратная связь
Copyleft ©