↑↓Torrent.by
Поиск
Логин: Регистрация
Пароль: Восстановить пароль
Загрузка...

Добрый вечер (2018) WEB-DLRip | iTunes

Скачать dobryy-vecher-2018-web-dlrip-itunes.torrent
U Магнитная ссылка Размер: 1.49 GB Раздают: 573 Качают: 163 Добавлен: 2018-12-20 18:25:50
Добрый вечер (2018) WEB-DLRip | iTunes

Добрый вечер

Страна: Россия
Производство: Life Is Short, Pin-Up Production
Год выпуска: 2018
Жанр:  комедия, криминал
Продолжительность: 01:19:57

Режиссер: Фёдор Константинович
В ролях: Вильма Кутавичюте, Артём Цуканов, Кристина Казинская, Филипп Савинков

Описание: В придорожном отеле сталкиваются бандит и писатель, монахиня и проститутка. У каждого есть план на этот вечер. Спор. Ссора. Секс. Убийство. Кто кого..?

Перевод: не требуется (оригинал) | iTunes
Субтитры: нет

Качество: WEB-DLRip
Формат: AVI
Видео кодек: XviD
Аудио кодек: АС3
Видео: 720x304 (2.35:1), 24.000 fps, XviD build 67 ~2 283 kbps avg
Аудио: 48.0 kHz, AC3 Dolby Digital, 3/2 (L,C,R,l,r) + LFE ch, ~384 kbps

Дата премьеры (РФ): 20 декабря 2018


[+] Дополнительная информация
Релиз от:





[+] Media Info
General
Полное имя                               : Добрый.вечер.2018.WEBDLRip-ylnian.avi
Формат                                   : AVI
Формат/Информация                        : Audio Video Interleave
Размер файла                             : 1,49 Гбайт
Продолжительность                        : 1 ч. 19 м.
Общий поток                              : 2676 Кбит/сек
Программа кодирования                    : VirtualDubMod 1.5.10.3 | (build 2550/release)
Библиотека кодирования                   : VirtualDubMod build 2550/release

Видео
Идентификатор                            : 0
Формат                                   : MPEG-4 Visual
Профиль формата                          : Advanced Simple@L5
Настройки формата                        : BVOP1 / Custom Matrix
Параметр BVOP формата                    : 1
Параметр QPel формата                    : Нет
Параметр GMC формата                     : Без точки перехода
Параметр матрицы формата                 : Выборочная
Идентификатор кодека                     : XVID
Идентификатор кодека/Подсказка           : XviD
Продолжительность                        : 1 ч. 19 м.
Битрейт                                  : 2283 Кбит/сек
Ширина                                   : 720 пикселей
Высота                                   : 304 пикселя
Соотношение сторон                       : 2,35:1
Частота кадров                           : 24,000 кадра/сек
Цветовое пространство                    : YUV
Субдискретизация насыщенности            : 4:2:0
Битовая глубина                          : 8 бит
Тип развёртки                            : Прогрессивная
Метод сжатия                             : С потерями
Бит/(Пиксели*Кадры)                      : 0.435
Размер потока                            : 1,27 Гбайт (85%)
Библиотека кодирования                   : XviD 67

Аудио
Идентификатор                            : 1
Формат                                   : AC-3
Формат/Информация                        : Audio Coding 3
Коммерческое название                    : Dolby Digital
Идентификатор кодека                     : 2000
Продолжительность                        : 1 ч. 19 м.
Вид битрейта                             : Постоянный
Битрейт                                  : 384 Кбит/сек
Каналы                                   : 6 каналов
Channel layout                           : L R C LFE Ls Rs
Частота                                  : 48,0 КГц
Частота кадров                           : 31,250 кадров/сек (1536 SPF)
Битовая глубина                          : 16 бит
Метод сжатия                             : С потерями
Размер потока                            : 220 Мбайт (14%)
Выравнивание                             : Разделение по промежуткам
Продолжительность промежутка             : 42  мс. (1,00 видеокадр)
Время предзагрузки промежутка            : 500  мс.



Скриншоты:
[+] Всего файлов в раздаче - 1:
Добрый.вечер.2018.WEBDLRip-ylnian.avi1.49 GB

Текущая раздача:
ДатаКомментарии    РазмерПиры
2018-12-20 U Добрый вечер (2018) WEB-DLRip | iTunes 1 К 1.49 GB ↑ 573 ↓ 163

Показать еще раздачи по запросу добрый:
2018-12-21 U Добрый вечер (2018) WEB-DLRip-AVC от OlLanDGroup | iTunes 745.67 MB ↑ 146 ↓ 25
2018-12-20 U Добрый вечер (2018) WEB-DLRip от MegaPeer | iTunes 1.46 GB ↑ 199 ↓ 102
2018-12-20 U Добрый вечер (2018) WEB-DL 1080p | iTunes 1К2.85 GB ↑ 464 ↓ 181
2017-01-20 U Саша добрый, Саша злой [01-20 из 20] (2016) HDTVRip от Files-x 10.72 GB ↑ 264 ↓ 527
2017-01-18 U Большой и добрый великан / The BFG (2016) BDRip от ExKinoRay | Лицензия 1.46 GB ↑ 459 ↓ 23
2017-01-18 U Саша добрый, Саша злой [01-16 из 20] (2016) SATRip-AVC от Korsar 1К8.20 GB ↑ 305 ↓ 274
2017-01-18 U Саша добрый, Саша злой [01-14 из 20] (2016) HDTVRip от Files-x 7.50 GB ↑ 66 ↓ 84

Отзывы
Игорек2020
вечер в хату?)

Зарегистрируйтесь чтобы добавить комментарий.
Обратная связь
Copyleft ©