↑↓Torrent.by
Поиск
Логин: Регистрация
Пароль: Восстановить пароль
Загрузка...

Добрый вечер (2018) WEB-DL 1080p | iTunes

Скачать dobryy-vecher-2018-web-dl-1080p-itunes.torrent
U Магнитная ссылка Размер: 2.85 GB Раздают: 464 Качают: 181 Добавлен: 2018-12-20 18:26:07
Добрый вечер (2018) WEB-DL 1080p | iTunes

Добрый вечер

Страна: Россия
Производство: Life Is Short, Pin-Up Production
Год выпуска: 2018
Жанр:  комедия, криминал
Продолжительность: 01:19:57

Режиссер: Фёдор Константинович
В ролях: Вильма Кутавичюте, Артём Цуканов, Кристина Казинская, Филипп Савинков

Описание: В придорожном отеле сталкиваются бандит и писатель, монахиня и проститутка. У каждого есть план на этот вечер. Спор. Ссора. Секс. Убийство. Кто кого..?

Перевод: не требуется (оригинал) | iTunes
Субтитры: нет

Качество: WEB-DL 1080p
Формат: МКV
Видео кодек: AVC
Аудио кодек: АС3 | AAC
Видео: 1920x800 (2.40:1), 24.000 fps, MPEG-4 AVC ~4 587 kbps avg
Аудио №1: 48.0 kHz, AC3 Dolby Digital, 3/2 (L,C,R,l,r) + LFE ch, ~384 kbps | RUS
Аудио №2: 48.0 kHz, Advanced Audio Codec Low Complexity, 2/0 (L,R) ch, ~126 kbps | RUS

Дата премьеры (РФ): 20 декабря 2018


[+] Дополнительная информация
Релиз от:




[+] Media Info
General
Уникальный идентификатор                 : 1877363814568250230545867625929606134 (0x169912EB0E77431EBB774BC260383F6)
Полное имя                               : Добрый.вечер.2018.WEBDL.1080p.iTunes.RUS-ylnian.mkv
Формат                                   : Matroska
Версия формата                           : Version 4
Размер файла                             : 2,85 Гбайт
Продолжительность                        : 1 ч. 19 м.
Общий поток                              : 5100 Кбит/сек
Название фильма                          : Добрый.вечер.2018.WEBDL.1080p.iTunes.RUS-ylnian
Дата кодирования                         : UTC 2018-12-20 04:40:35
Программа кодирования                    : mkvmerge v29.0.0 ('Like It Or Not') 64-bit
Библиотека кодирования                   : libebml v1.3.6 + libmatroska v1.4.9

Видео
Идентификатор                            : 1
Формат                                   : AVC
Формат/Информация                        : Advanced Video Codec
Профиль формата                          : High@L4
Настройки формата                        : CABAC / 5 Ref Frames
Параметр CABAC формата                   : Да
Параметр RefFrames формата               : 5 кадров
Идентификатор кодека                     : V_MPEG4/ISO/AVC
Продолжительность                        : 1 ч. 19 м.
Битрейт                                  : 4587 Кбит/сек
Ширина                                   : 1920 пикселей
Высота                                   : 800 пикселей
Соотношение сторон                       : 2,40:1
Режим частоты кадров                     : Постоянный
Частота кадров                           : 24,000 кадра/сек
Цветовое пространство                    : YUV
Субдискретизация насыщенности            : 4:2:0
Битовая глубина                          : 8 бит
Тип развёртки                            : Прогрессивная
Бит/(Пиксели*Кадры)                      : 0.124
Размер потока                            : 2,56 Гбайт (90%)
Заголовок                                : Добрый.вечер.2018.WEBDL.1080p.iTunes.RUS-ylnian
Язык                                     : Russian
Default                                  : Да
Forced                                   : Да
Цветовой диапазон                        : Limited
Основные цвета                           : BT.709
Характеристики трансфера                 : BT.709
Коэффициенты матрицы                     : BT.709

Аудио #1
Идентификатор                            : 2
Формат                                   : AC-3
Формат/Информация                        : Audio Coding 3
Коммерческое название                    : Dolby Digital
Идентификатор кодека                     : A_AC3
Продолжительность                        : 1 ч. 19 м.
Вид битрейта                             : Постоянный
Битрейт                                  : 384 Кбит/сек
Каналы                                   : 6 каналов
Channel layout                           : L R C LFE Ls Rs
Частота                                  : 48,0 КГц
Частота кадров                           : 31,250 кадров/сек (1536 SPF)
Битовая глубина                          : 16 бит
Метод сжатия                             : С потерями
Размер потока                            : 220 Мбайт (8%)
Язык                                     : Russian
Default                                  : Да
Forced                                   : Да

Аудио #2
Идентификатор                            : 3
Формат                                   : AAC LC
Формат/Информация                        : Advanced Audio Codec Low Complexity
Идентификатор кодека                     : A_AAC-2
Продолжительность                        : 1 ч. 19 м.
Битрейт                                  : 126 Кбит/сек
Каналы                                   : 2 канала
Channel layout                           : L R
Частота                                  : 48,0 КГц
Частота кадров                           : 46,875 кадров/сек (1024 SPF)
Метод сжатия                             : С потерями
Размер потока                            : 72,3 Мбайт (2%)
Язык                                     : Russian
Default                                  : Нет
Forced                                   : Нет

Меню
00:00:00.000                             : ru:1
00:02:40.791                             : ru:2
00:08:16.957                             : ru:3
00:15:33.165                             : ru:4
00:28:02.665                             : ru:5
00:31:59.373                             : ru:6
00:39:04.123                             : ru:7
00:50:41.123                             : ru:8
00:59:28.164                             : ru:9
01:11:32.247                             : ru:10



Скриншоты:
[+] Всего файлов в раздаче - 1:
Добрый.вечер.2018.WEBDL.1080p.iTunes.RUS-ylnian.mkv2.85 GB

Текущая раздача:
ДатаКомментарии    РазмерПиры
2018-12-20 U Добрый вечер (2018) WEB-DL 1080p | iTunes 1 К 2.85 GB ↑ 464 ↓ 181

Показать еще раздачи по запросу добрый:
2018-12-21 U Добрый вечер (2018) WEB-DLRip-AVC от OlLanDGroup | iTunes 745.67 MB ↑ 146 ↓ 25
2018-12-20 U Добрый вечер (2018) WEB-DLRip от MegaPeer | iTunes 1.46 GB ↑ 199 ↓ 102
2018-12-20 U Добрый вечер (2018) WEB-DLRip | iTunes 1К1.49 GB ↑ 573 ↓ 163
2017-01-20 U Саша добрый, Саша злой [01-20 из 20] (2016) HDTVRip от Files-x 10.72 GB ↑ 264 ↓ 527
2017-01-18 U Большой и добрый великан / The BFG (2016) BDRip от ExKinoRay | Лицензия 1.46 GB ↑ 459 ↓ 23
2017-01-18 U Саша добрый, Саша злой [01-16 из 20] (2016) SATRip-AVC от Korsar 1К8.20 GB ↑ 305 ↓ 274
2017-01-18 U Саша добрый, Саша злой [01-14 из 20] (2016) HDTVRip от Files-x 7.50 GB ↑ 66 ↓ 84

Отзывы
komunist
Не очень.
Нет своего стиля.

Зарегистрируйтесь чтобы добавить комментарий.
Обратная связь
Copyleft ©