↑↓Torrent.by
Поиск
Логин: Регистрация
Пароль: Восстановить пароль
Загрузка...

Хармс (2017) WEB-DLRip | iTunes

Скачать harms-2017-web-dlrip-itunes.torrent
U Магнитная ссылка Размер: 1.46 GB Раздают: 245 Качают: 22 Добавлен: 2018-12-21 06:44:38
Хармс (2017) WEB-DLRip | iTunes

Хармс

Страна: Россия
Производство: Proline Film
Год выпуска: 2017
Жанр:  драма, биография
Продолжительность: 01:35:36

Режиссер: Иван Болотников
В ролях: Войтек Урбаньски, Айсте Диржюте, Дариус Гумаускас, Артем Семакин, Андрей Феськов, Александр Баширов, Никита Кукушкин

Описание: Он сам считает себя гением, но издательства отказываются печатать его произведения. Он любит женщин, но те не всегда его понимают. Постоянное отсутствие денег и отстраненность от реальности. Элегантный пижон Даниил Ювачев называет себя не менее эффектно — Хармс. Он завсегдатай беспрерывных литературных тусовок и любитель эпатажа. Живя в обществе, он совершенно от него оторван. Хармс бросает вызов времени, смело кидается в пучину действительности, размытой и вполне условной, с той же долей противоречий, какой была исполнена его натура.

В атмосфере его ветхой квартиры и редакции детских журналов «Чиж» и «Ёж», ленинградских улиц, набережных и крыш разворачивается удивительная битва человека с самим собой, своими пороками, страстями, с целым миром, в котором он существует, будто запертый в клетку. Справится ли он с давлением общества, любовными коллизиями, невозможностью заниматься творчеством..?

Перевод: не требуется (оригинал) | iTunes
Субтитры: нет

Качество: WEB-DLRip
Формат: AVI
Видео кодек: XviD
Аудио кодек: АС3
Видео: 720x384 (1.85:1), 24.000 fps, XviD build 67 ~1 796 kbps avg
Аудио: 48.0 kHz, AC3 Dolby Digital, 3/2 (L,C,R,l,r) + LFE ch, ~384 kbps

Дата премьеры (мир): 23 июня 2017
Дата премьеры (РФ): 2 ноября 2017, «Парадиз»


[+] Дополнительная информация
Релиз от:




[+] Media Info
General
Полное имя                               : Хармс.2017.WEBDLRip-ylnian.avi
Формат                                   : AVI
Формат/Информация                        : Audio Video Interleave
Размер файла                             : 1,46 Гбайт
Продолжительность                        : 1 ч. 35 м.
Общий поток                              : 2189 Кбит/сек
Программа кодирования                    : VirtualDubMod 1.5.10.3 | (build 2550/release)
Библиотека кодирования                   : VirtualDubMod build 2550/release

Видео
Идентификатор                            : 0
Формат                                   : MPEG-4 Visual
Профиль формата                          : Advanced Simple@L5
Настройки формата                        : BVOP1 / Custom Matrix
Параметр BVOP формата                    : 1
Параметр QPel формата                    : Нет
Параметр GMC формата                     : Без точки перехода
Параметр матрицы формата                 : Выборочная
Идентификатор кодека                     : XVID
Идентификатор кодека/Подсказка           : XviD
Продолжительность                        : 1 ч. 35 м.
Битрейт                                  : 1796 Кбит/сек
Ширина                                   : 720 пикселей
Высота                                   : 384 пикселя
Соотношение сторон                       : 1,85:1
Частота кадров                           : 24,000 кадра/сек
Цветовое пространство                    : YUV
Субдискретизация насыщенности            : 4:2:0
Битовая глубина                          : 8 бит
Тип развёртки                            : Прогрессивная
Метод сжатия                             : С потерями
Бит/(Пиксели*Кадры)                      : 0.271
Размер потока                            : 1,20 Гбайт (82%)
Библиотека кодирования                   : XviD 67

Аудио
Идентификатор                            : 1
Формат                                   : AC-3
Формат/Информация                        : Audio Coding 3
Коммерческое название                    : Dolby Digital
Идентификатор кодека                     : 2000
Продолжительность                        : 1 ч. 35 м.
Вид битрейта                             : Постоянный
Битрейт                                  : 384 Кбит/сек
Каналы                                   : 6 каналов
Channel layout                           : L R C LFE Ls Rs
Частота                                  : 48,0 КГц
Частота кадров                           : 31,250 кадров/сек (1536 SPF)
Битовая глубина                          : 16 бит
Метод сжатия                             : С потерями
Размер потока                            : 263 Мбайт (18%)
Выравнивание                             : Разделение по промежуткам
Продолжительность промежутка             : 42  мс. (1,00 видеокадр)
Время предзагрузки промежутка            : 500  мс.



Скриншоты:
[+] Всего файлов в раздаче - 1:
Хармс.2017.WEBDLRip-ylnian.avi1.46 GB

Текущая раздача:
ДатаКомментарии    РазмерПиры
2018-12-21 U Хармс (2017) WEB-DLRip | iTunes 1.46 GB ↑ 245 ↓ 22

Похожие раздачи по запросу - хармс:
2018-12-21 U Хармс (2017) WEB-DL 1080p | iTunes 3.80 GB ↑ 120 ↓ 34

Отзывы
Зарегистрируйтесь чтобы добавить комментарий.
Обратная связь
Copyleft ©