↑↓Torrent.by
Поиск
Логин: Регистрация
Пароль: Восстановить пароль
Загрузка...

Хармс (2017) WEB-DL 1080p | iTunes

Скачать harms-2017-web-dl-1080p-itunes.torrent
U Магнитная ссылка Размер: 3.80 GB Раздают: 120 Качают: 34 Добавлен: 2018-12-21 06:44:42
Хармс (2017) WEB-DL 1080p | iTunes

Хармс

Страна: Россия
Производство: Proline Film
Год выпуска: 2017
Жанр:  драма, биография
Продолжительность: 01:35:36

Режиссер: Иван Болотников
В ролях: Войтек Урбаньски, Айсте Диржюте, Дариус Гумаускас, Артем Семакин, Андрей Феськов, Александр Баширов, Никита Кукушкин

Описание: Он сам считает себя гением, но издательства отказываются печатать его произведения. Он любит женщин, но те не всегда его понимают. Постоянное отсутствие денег и отстраненность от реальности. Элегантный пижон Даниил Ювачев называет себя не менее эффектно — Хармс. Он завсегдатай беспрерывных литературных тусовок и любитель эпатажа. Живя в обществе, он совершенно от него оторван. Хармс бросает вызов времени, смело кидается в пучину действительности, размытой и вполне условной, с той же долей противоречий, какой была исполнена его натура.

В атмосфере его ветхой квартиры и редакции детских журналов «Чиж» и «Ёж», ленинградских улиц, набережных и крыш разворачивается удивительная битва человека с самим собой, своими пороками, страстями, с целым миром, в котором он существует, будто запертый в клетку. Справится ли он с давлением общества, любовными коллизиями, невозможностью заниматься творчеством..?

Перевод: не требуется (оригинал) | iTunes
Субтитры: английские

Качество: WEB-DL 1080p
Формат: МКV
Видео кодек: AVC
Аудио кодек: АС3 | AAC
Видео: 1920x1038 (1.85:1), 24.000 fps, MPEG-4 AVC ~5 172 kbps avg
Аудио №1: 48.0 kHz, AC3 Dolby Digital, 3/2 (L,C,R,l,r) + LFE ch, ~384 kbps | RUS
Аудио №2: 48.0 kHz, Advanced Audio Codec Low Complexity, 2/0 (L,R) ch, ~126 kbps | RUS
Формат субтитров: UTF-8 Plain Text

Дата премьеры (мир): 23 июня 2017
Дата премьеры (РФ): 2 ноября 2017, «Парадиз»


[+] Дополнительная информация
Релиз от:




[+] Media Info
General
Уникальный идентификатор                 : 158982020737823384473385380785083388457 (0x779AD2CCB08EE55FB4A75A57F4EC1229)
Полное имя                               : Хармс.2017.WEBDL.1080p.iTunes.RUS-ylnian.mkv
Формат                                   : Matroska
Версия формата                           : Version 4
Размер файла                             : 3,80 Гбайт
Продолжительность                        : 1 ч. 35 м.
Общий поток                              : 5684 Кбит/сек
Название фильма                          : Хармс.2017.WEBDL.1080p.iTunes.RUS-ylnian
Дата кодирования                         : UTC 2018-12-20 03:57:41
Программа кодирования                    : mkvmerge v29.0.0 ('Like It Or Not') 64-bit
Библиотека кодирования                   : libebml v1.3.6 + libmatroska v1.4.9

Видео
Идентификатор                            : 1
Формат                                   : AVC
Формат/Информация                        : Advanced Video Codec
Профиль формата                          : High@L4
Настройки формата                        : CABAC / 4 Ref Frames
Параметр CABAC формата                   : Да
Параметр RefFrames формата               : 4 кадра
Идентификатор кодека                     : V_MPEG4/ISO/AVC
Продолжительность                        : 1 ч. 35 м.
Битрейт                                  : 5172 Кбит/сек
Ширина                                   : 1920 пикселей
Высота                                   : 1038 пикселей
Соотношение сторон                       : 1,85:1
Режим частоты кадров                     : Постоянный
Частота кадров                           : 24,000 кадра/сек
Цветовое пространство                    : YUV
Субдискретизация насыщенности            : 4:2:0
Битовая глубина                          : 8 бит
Тип развёртки                            : Прогрессивная
Бит/(Пиксели*Кадры)                      : 0.108
Размер потока                            : 3,45 Гбайт (91%)
Заголовок                                : Хармс.2017.WEBDL.1080p.iTunes.RUS-ylnian
Язык                                     : Russian
Default                                  : Да
Forced                                   : Да
Цветовой диапазон                        : Limited
Основные цвета                           : BT.709
Характеристики трансфера                 : BT.709
Коэффициенты матрицы                     : BT.709

Аудио #1
Идентификатор                            : 2
Формат                                   : AC-3
Формат/Информация                        : Audio Coding 3
Коммерческое название                    : Dolby Digital
Идентификатор кодека                     : A_AC3
Продолжительность                        : 1 ч. 35 м.
Вид битрейта                             : Постоянный
Битрейт                                  : 384 Кбит/сек
Каналы                                   : 6 каналов
Channel layout                           : L R C LFE Ls Rs
Частота                                  : 48,0 КГц
Частота кадров                           : 31,250 кадров/сек (1536 SPF)
Битовая глубина                          : 16 бит
Метод сжатия                             : С потерями
Размер потока                            : 263 Мбайт (7%)
Язык                                     : Russian
Default                                  : Да
Forced                                   : Да

Аудио #2
Идентификатор                            : 3
Формат                                   : AAC LC
Формат/Информация                        : Advanced Audio Codec Low Complexity
Идентификатор кодека                     : A_AAC-2
Продолжительность                        : 1 ч. 35 м.
Битрейт                                  : 126 Кбит/сек
Каналы                                   : 2 канала
Channel layout                           : L R
Частота                                  : 48,0 КГц
Частота кадров                           : 46,875 кадров/сек (1024 SPF)
Метод сжатия                             : С потерями
Размер потока                            : 85,8 Мбайт (2%)
Язык                                     : Russian
Default                                  : Нет
Forced                                   : Нет

Текст
Идентификатор                            : 4
Формат                                   : UTF-8
Идентификатор кодека                     : S_TEXT/UTF8
Идентификатор кодека/Информация          : UTF-8 Plain Text
Продолжительность                        : 1 ч. 35 м.
Битрейт                                  : 37 бит/сек
ElementCount                             : 823
Размер потока                            : 26,4 Кбайт (0%)
Язык                                     : English
Default                                  : Нет
Forced                                   : Нет

Меню
00:00:00.000                             : ru:1
00:05:21.666                             : ru:2
00:11:44.916                             : ru:3
00:16:53.374                             : ru:4
00:21:26.540                             : ru:5
00:31:44.165                             : ru:6
00:36:58.415                             : ru:7
00:43:59.873                             : ru:8
00:51:22.539                             : ru:9
00:58:47.830                             : ru:10
01:06:37.288                             : ru:11
01:13:47.663                             : ru:12
01:18:46.204                             : ru:13
01:24:28.787                             : ru:14
01:29:55.787                             : ru:15



Скриншоты:
[+] Всего файлов в раздаче - 1:
Хармс.2017.WEBDL.1080p.iTunes.RUS-ylnian.mkv3.80 GB

Текущая раздача:
ДатаКомментарии    РазмерПиры
2018-12-21 U Хармс (2017) WEB-DL 1080p | iTunes 3.80 GB ↑ 120 ↓ 34

Похожие раздачи по запросу - хармс:
2018-12-21 U Хармс (2017) WEB-DLRip | iTunes 1.46 GB ↑ 244 ↓ 22

Отзывы
Зарегистрируйтесь чтобы добавить комментарий.
Обратная связь
Copyleft ©