↑↓Torrent.by
Поиск
Логин: Регистрация
Пароль: Восстановить пароль
Загрузка...

Добрый вечер (2018) WEB-DLRip-AVC от OlLanDGroup | iTunes

Скачать dobryy-vecher-2018-web-dlrip-avc-ot-ollandgroup-itunes.torrent
U Магнитная ссылка Размер: 745.67 MB Раздают: 147 Качают: 25 Добавлен: 2018-12-21 06:45:10
Добрый вечер (2018) WEB-DLRip-AVC от OlLanDGroup | iTunes

Добрый вечер

Год выпуска: 2018
Страна: Россия
Производство: Life Is Short, Pin-Up Production
Жанр:  Черная комедия, криминал, боевик

Режиссёр: Фёдор Константинович
В ролях: Вильма Кутавичюте, Артём Цуканов, Кристина Казинская, Филипп Савинков, Евгений Горошишин, Алексей Рыбин, Алексей Студеникин, Валерия Липкина, Алена Жалнина

Перевод: Не требуется | iTunes
Субтитры: Нет
Реклама: Отсутствует

Описание: В придорожном отеле сталкиваются бандит и писатель, монахиня и проститутка. У каждого есть план на этот вечер. Спор. Ссора. Секс. Убийство. Кто кого?

Качество: WEB-DLRip-AVC
Продолжительность: 01:19:57

Формат: MKV
Видео кодек: MPEG-4 AVC
Аудио кодек: AC3
Видео: 720x300 (2,40:1), 24,000 fps, x264 ~918 kbps avg, 0.177 bit/pixel
Аудио: 48 kHz, AC3, 3/2 (L,C,R,l,r) + LFE ch, ~ 384.00 kbps avg | RUS (iTunes)

Дата премьеры (РФ): 20 декабря 2018

Релиз: Rip by:


[+] MediaInfo

Общее
Уникальный идентификатор                 : 176532710826756642912013377285740591620 (0x84CEF6A105CB0F7AB80D868832207A04)
Полное имя                               : D:TempДобрый.вечер.2018.WEB-DLRip(AVC).OlLanDGroup.mkv
Формат                                   : Matroska
Версия формата                           : Version 4 / Version 2
Размер файла                             : 746 Мбайт
Продолжительность                        : 1 ч. 19 м.
Общий поток                              : 1304 Кбит/сек
Название фильма                          : Добрый.вечер.2018.Rip by Vovan366
Дата кодирования                         : UTC 2018-12-20 11:26:14
Программа кодирования                    : mkvmerge v28.2.0 ('The Awakening') 64-bit
Библиотека кодирования                   : libebml v1.3.6 + libmatroska v1.4.9
DURATION                                 : 01:19:57.184000000
NUMBER_OF_FRAMES                         : 149912
NUMBER_OF_BYTES                          : 230264832
_STATISTICS_WRITING_APP                  : mkvmerge v28.2.0 ('The Awakening') 64-bit
_STATISTICS_WRITING_DATE_UTC             : 2018-12-20 11:26:14
_STATISTICS_TAGS                         : BPS DURATION NUMBER_OF_FRAMES NUMBER_OF_BYTES
Attachment                               : Yes

Видео
Идентификатор                            : 1
Формат                                   : AVC
Формат/Информация                        : Advanced Video Codec
Профиль формата                          : High@L4.1
Параметр CABAC формата                   : Да
Параметр ReFrames формата                : 9 кадров
Идентификатор кодека                     : V_MPEG4/ISO/AVC
Продолжительность                        : 1 ч. 19 м.
Битрейт                                  : 918 Кбит/сек
Ширина                                   : 720 пикселей
Высота                                   : 300 пикселей
Соотношение сторон                       : 2,40:1
Режим частоты кадров                     : Постоянный
Частота кадров                           : 24,000 кадра/сек
Цветовое пространство                    : YUV
Субдискретизация насыщенности            : 4:2:0
Битовая глубина                          : 8 бит
Тип развёртки                            : Прогрессивная
Бит/(Пиксели*Кадры)                      : 0.177
Размер потока                            : 511 Мбайт (69%)
Заголовок                                : Добрый.вечер.2018.WEB-DLRip(AVC).OlLanDGroup
Библиотека кодирования                   : x264 core 146 r2538 121396c
Настройки программы                      : cabac=1 / ref=9 / deblock=1:-3:-3 / analyse=0x3:0x133 / me=umh / subme=10 / psy=1 / psy_rd=1.00:0.00 / mixed_ref=1 / me_range=32 / chroma_me=1 / trellis=2 / 8x8dct=1 / cqm=0 / deadzone=21,11 / fast_pskip=0 / chroma_qp_offset=-2 / threads=6 / lookahead_threads=1 / sliced_threads=0 / nr=0 / decimate=0 / interlaced=0 / bluray_compat=0 / constrained_intra=0 / bframes=10 / b_pyramid=2 / b_adapt=1 / b_bias=0 / direct=3 / weightb=1 / open_gop=0 / weightp=2 / keyint=240 / keyint_min=23 / scenecut=40 / intra_refresh=0 / rc_lookahead=40 / rc=2pass / mbtree=0 / bitrate=918 / ratetol=1.0 / qcomp=0.60 / qpmin=0 / qpmax=69 / qpstep=4 / cplxblur=20.0 / qblur=0.5 / vbv_maxrate=50000 / vbv_bufsize=52500 / nal_hrd=none / filler=0 / ip_ratio=1.40 / pb_ratio=1.30 / aq=1:1.00
Default                                  : Да
Forced                                   : Нет

Аудио
Идентификатор                            : 2
Формат                                   : AC-3
Формат/Информация                        : Audio Coding 3
Расширение режима                        : CM (complete main)
Параметр Endianness формата              : Big
Идентификатор кодека                     : A_AC3
Продолжительность                        : 1 ч. 19 м.
Вид битрейта                             : Постоянный
Битрейт                                  : 384 Кбит/сек
Каналы                                   : 6 каналов
Расположение каналов                     : Front: L C R, Side: L R, LFE
Частота                                  : 48,0 КГц
Битовая глубина                          : 16 бит
Метод сжатия                             : С потерями
Размер потока                            : 220 Мбайт (29%)
Язык                                     : Russian
Default                                  : Да
Forced                                   : Да

Меню
00:00:00.000                             : ru:1
00:02:40.791                             : ru:2
00:08:16.957                             : ru:3
00:15:33.165                             : ru:4
00:28:02.665                             : ru:5
00:31:59.373                             : ru:6
00:39:04.123                             : ru:7
00:50:41.123                             : ru:8
00:59:28.164                             : ru:9
01:11:32.247                             : ru:10




Скриншоты:
[+] Всего файлов в раздаче - 1:
Добрый.вечер.2018.WEB-DLRip(AVC).OlLanDGroup.mkv745.67 MB

Текущая раздача:
ДатаКомментарии    РазмерПиры
2018-12-21 U Добрый вечер (2018) WEB-DLRip-AVC от OlLanDGroup | iTunes 745.67 MB ↑ 147 ↓ 25

Показать еще раздачи по запросу добрый:
2018-12-20 U Добрый вечер (2018) WEB-DLRip от MegaPeer | iTunes 1.46 GB ↑ 199 ↓ 102
2018-12-20 U Добрый вечер (2018) WEB-DL 1080p | iTunes 1К2.85 GB ↑ 464 ↓ 181
2018-12-20 U Добрый вечер (2018) WEB-DLRip | iTunes 1К1.49 GB ↑ 573 ↓ 163
2017-01-20 U Саша добрый, Саша злой [01-20 из 20] (2016) HDTVRip от Files-x 10.72 GB ↑ 264 ↓ 527
2017-01-18 U Большой и добрый великан / The BFG (2016) BDRip от ExKinoRay | Лицензия 1.46 GB ↑ 459 ↓ 23
2017-01-18 U Саша добрый, Саша злой [01-16 из 20] (2016) SATRip-AVC от Korsar 1К8.20 GB ↑ 305 ↓ 274
2017-01-18 U Саша добрый, Саша злой [01-14 из 20] (2016) HDTVRip от Files-x 7.50 GB ↑ 66 ↓ 84

Отзывы
Зарегистрируйтесь чтобы добавить комментарий.
Обратная связь
Copyleft ©