↑↓Torrent.by
Поиск
Логин: Регистрация
Пароль: Восстановить пароль
Загрузка...

Ваш репетитор (2018) WEB-DLRip-AVC от OlLanDGroup | iTunes

Скачать vash-repetitor-2018-web-dlrip-avc-ot-ollandgroup-itunes.torrent
U Магнитная ссылка Размер: 745.16 MB Раздают: 64 Качают: 12 Добавлен: 2018-12-21 15:25:54
Ваш репетитор (2018) WEB-DLRip-AVC от OlLanDGroup | iTunes

Ваш репетитор

Год выпуска: 2018
Страна: Россия
Производство: Мармот-фильм, Продюсерская компания Валерия Тодоровского
Жанр:  Драма, мелодрама

Режиссёр: Антон Коломеец
В ролях: Наталия Вдовина, Алексей Сергеев (II), Владислав Коноплёв, Максим Битюков, Анастасия Куимова, Сергей Пиоро, Ольга Цинк, Светлана Иванова-Сергеева, Константин Колесник, Екатерина Леонова, Татьяна Циренина, Григорий Зельцер, Александр Трачевский, Макар Кочубей, Марина Зырянова, Алексей Виноградов

Перевод: Не требуется | iTunes
Субтитры: Нет
Реклама: Отсутствует

Описание: История взросления молодого человека. Первая любовь, первое предательство, первые разочарования. Семнадцатилетний Савва готовится к поступлению в университет. Родители уезжают в отпуск, возлагая на сына ответственность за подготовку к вступительным экзаменам. Савва находит в интернете на сайте «Ваш репетитор» преподавателя по зарубежной литературе.

Качество: WEB-DLRip-AVC
Продолжительность: 01:24:49

Формат: MKV
Видео кодек: MPEG-4 AVC
Аудио кодек: AC3
Видео: 720x302 (2,40:1), 25,000 fps, x264 ~1034 kbps avg, 0.190 bit/pixel
Аудио: 48 kHz, AC3 Dolby Digital, 2 (L,R) ch, ~ 192.00 kbps avg | RUS (iTunes)

Дата премьеры (РФ): 20 декабря 2018

Релиз: Rip by:


[+] MediaInfo

Общее
Уникальный идентификатор                 : 84374696423168261709891112373442720479 (0x3F79F9B65EBC136CF0C26F950B1632DF)
Полное имя                               : D:ВидеоВаш.репетитор.2018.WEB-DLRip(AVC).OlLanDGroup.mkv
Формат                                   : Matroska
Версия формата                           : Version 4 / Version 2
Размер файла                             : 745 Мбайт
Продолжительность                        : 1 ч. 24 м.
Общий поток                              : 1228 Кбит/сек
Название фильма                          : Ваш.репетитор.2018.Rip by Vovan366
Дата кодирования                         : UTC 2018-12-20 19:05:57
Программа кодирования                    : mkvmerge v28.2.0 ('The Awakening') 64-bit
Библиотека кодирования                   : libebml v1.3.6 + libmatroska v1.4.9
DURATION                                 : 01:24:48.800000000
NUMBER_OF_FRAMES                         : 159025
NUMBER_OF_BYTES                          : 122131200
_STATISTICS_WRITING_APP                  : mkvmerge v28.2.0 ('The Awakening') 64-bit
_STATISTICS_WRITING_DATE_UTC             : 2018-12-20 19:05:57
_STATISTICS_TAGS                         : BPS DURATION NUMBER_OF_FRAMES NUMBER_OF_BYTES
Attachment                               : Yes

Видео
Идентификатор                            : 1
Формат                                   : AVC
Формат/Информация                        : Advanced Video Codec
Профиль формата                          : High@L4.1
Параметр CABAC формата                   : Да
Параметр ReFrames формата                : 9 кадров
Идентификатор кодека                     : V_MPEG4/ISO/AVC
Продолжительность                        : 1 ч. 24 м.
Битрейт                                  : 1034 Кбит/сек
Ширина                                   : 720 пикселей
Высота                                   : 302 пикселя
Соотношение сторон                       : 2,40:1
Режим частоты кадров                     : Постоянный
Частота кадров                           : 25,000 кадров/сек
Цветовое пространство                    : YUV
Субдискретизация насыщенности            : 4:2:0
Битовая глубина                          : 8 бит
Тип развёртки                            : Прогрессивная
Бит/(Пиксели*Кадры)                      : 0.190
Размер потока                            : 614 Мбайт (82%)
Заголовок                                : Ваш.репетитор.2018.WEB-DLRip(AVC).OlLanDGroup
Библиотека кодирования                   : x264 core 146 r2538 121396c
Настройки программы                      : cabac=1 / ref=9 / deblock=1:-3:-3 / analyse=0x3:0x133 / me=umh / subme=10 / psy=1 / psy_rd=1.00:0.00 / mixed_ref=1 / me_range=32 / chroma_me=1 / trellis=2 / 8x8dct=1 / cqm=0 / deadzone=21,11 / fast_pskip=0 / chroma_qp_offset=-2 / threads=6 / lookahead_threads=1 / sliced_threads=0 / nr=0 / decimate=0 / interlaced=0 / bluray_compat=0 / constrained_intra=0 / bframes=10 / b_pyramid=2 / b_adapt=1 / b_bias=0 / direct=3 / weightb=1 / open_gop=0 / weightp=2 / keyint=250 / keyint_min=25 / scenecut=40 / intra_refresh=0 / rc_lookahead=40 / rc=2pass / mbtree=0 / bitrate=1034 / ratetol=1.0 / qcomp=0.60 / qpmin=0 / qpmax=69 / qpstep=4 / cplxblur=20.0 / qblur=0.5 / vbv_maxrate=50000 / vbv_bufsize=52500 / nal_hrd=none / filler=0 / ip_ratio=1.40 / pb_ratio=1.30 / aq=1:1.00
Язык                                     : Russian
Default                                  : Да
Forced                                   : Нет

Аудио
Идентификатор                            : 2
Формат                                   : AC-3
Формат/Информация                        : Audio Coding 3
Расширение режима                        : CM (complete main)
Параметр Endianness формата              : Big
Идентификатор кодека                     : A_AC3
Продолжительность                        : 1 ч. 24 м.
Вид битрейта                             : Постоянный
Битрейт                                  : 192 Кбит/сек
Каналы                                   : 2 канала
Расположение каналов                     : Front: L R
Частота                                  : 48,0 КГц
Битовая глубина                          : 16 бит
Метод сжатия                             : С потерями
Размер потока                            : 116 Мбайт (16%)
Язык                                     : Russian
Default                                  : Да
Forced                                   : Нет

Меню
00:00:00.000                             : ru:1
00:08:14.040                             : ru:2
00:17:02.640                             : ru:3
00:25:28.520                             : ru:4
00:33:53.200                             : ru:5
00:42:27.680                             : ru:6
00:50:56.160                             : ru:7
00:59:39.400                             : ru:8
01:08:36.480                             : ru:9
01:14:48.000                             : ru:10




Скриншоты:
[+] Всего файлов в раздаче - 1:
Ваш.репетитор.2018.WEB-DLRip(AVC).OlLanDGroup.mkv745.16 MB

Текущая раздача:
ДатаКомментарии    РазмерПиры
2018-12-21 U Ваш репетитор (2018) WEB-DLRip-AVC от OlLanDGroup | iTunes 745.16 MB ↑ 64 ↓ 12

Похожие раздачи по запросу - репетитор:
2018-12-20 U Ваш репетитор (2018) WEB-DL 1080p | iTunes 1К3.00 GB ↑ 288 ↓ 99
2018-12-20 U Ваш репетитор (2018) WEB-DLRip от MegaPeer | iTunes 1.45 GB ↑ 276 ↓ 129
2013-10-23 U Виртуальный репетитор английского языка (2009) PC 14К1.22 GB ↑ 591 ↓ 271

Отзывы
Зарегистрируйтесь чтобы добавить комментарий.
Обратная связь
Copyleft ©