↑↓Torrent.by
Поиск
Логин: Регистрация
Пароль: Восстановить пароль
Загрузка...

Пуля [01-10 из 10] (2018) WEBRip от GeneralFilm

Скачать pulya-01-10-iz-2018-webrip-ot-generalfilm.torrent
U Магнитная ссылка Размер: 5.44 GB Раздают: 452 Качают: 178 Добавлен: 2018-12-22 06:24:58
Пуля [01-10 из 10] (2018) WEBRip от GeneralFilm

Год выпуска: 2018
Жанр:  Детектив
Выпущено: Росиия, IKa film, Амедиа Продакшн
Режиссер: Алексей Быстрицкий
В ролях: Никита Панфилов, Иева Андреевайте, Максим Щёголев, Анатолий Кот, Александр Яцко, Олег Кассин, Анна Галлямова, Антон Кузнецов, Роман Лянчук

О фильме: Главный герой — командир отряда специального назначения ГРУ, майор Кирилл Романов, получает таинственное сообщение от виновника смерти его матери. В письме сообщается, что автор не причастен к её кончине. Кирилл в замешательстве, он решает прервать военный контракт и вернуться в Москву, чтобы встретиться с преступником лично и узнать подробности трагедии, которая произошла в Сибири, на месте, где собиралась базироваться нефтяная компания.

Качество: WEBRip
Видео: XviD build 73, 720x304 (2.35:1), 25.000 fps, 1500 Kbps (0.272 bit/pixel)
Аудио: 48.0 kHz, AC3, 2/0 ch, 192 kbps
Продолжительность: 10 x ~ 00:47:00
Перевод: Не требуется
Cубтитры: нет

Релиз:


[+] MediaInfo
General
Complete name               : D:RazdachiPulja.2018.XviD.WEbRip.GeneralFilmPulja.e01.avi
Format                      : AVI
Format/Info                 : Audio Video Interleave
File size                   : 557 MiB
Duration                    : 45 min 55 s
Overall bit rate            : 1 697 kb/s
Writing application         : VirtualDubMod 1.5.10.3 | www.virtualdub-fr.org || (build 2550/release)
Writing library             : VirtualDubMod build 2550/release

Video
ID                          : 0
Format                      : MPEG-4 Visual
Format profile              : Advanced Simple@L5
Format settings, BVOP       : 1
Format settings, QPel       : No
Format settings, GMC        : No warppoints
Format settings, Matrix     : Custom
Codec ID                    : XVID
Codec ID/Hint               : XviD
Duration                    : 45 min 55 s
Bit rate                    : 1 495 kb/s
Width                       : 720 pixels
Height                      : 304 pixels
Display aspect ratio        : 2.35:1
Frame rate                  : 25.000 FPS
Color space                 : YUV
Chroma subsampling          : 4:2:0
Bit depth                   : 8 bits
Scan type                   : Progressive
Compression mode            : Lossy
Bits/(Pixel*Frame)          : 0.273
Stream size                 : 491 MiB (88%)
Writing library             : XviD 73

Audio
ID                          : 1
Format                      : AC-3
Format/Info                 : Audio Coding 3
Format settings, Endianness : Big
Codec ID                    : 2000
Duration                    : 45 min 55 s
Bit rate mode               : Constant
Bit rate                    : 192 kb/s
Channel(s)                  : 2 channels
Channel positions           : Front: L R
Sampling rate               : 48.0 kHz
Frame rate                  : 31.250 FPS (1536 SPF)
Bit depth                   : 16 bits
Compression mode            : Lossy
Stream size                 : 63.1 MiB (11%)
Alignment                   : Split accross interleaves
Interleave, duration        : 40  ms (1.00 video frame)
Interleave, preload duratio : 500  ms
Service kind                : Complete Main



Скриншоты:
[+] Всего файлов в раздаче - 10:
Pulja.e01.avi557.46 MB
Pulja.e02.avi557.53 MB
Pulja.e03.avi557.39 MB
Pulja.e04.avi556.96 MB
Pulja.e05.avi557.85 MB
Pulja.e06.avi557.36 MB
Pulja.e07.avi557.02 MB
Pulja.e08.avi556.65 MB
Pulja.e09.avi557.30 MB
Pulja.e10.avi557.29 MB

Показать еще раздачи по запросу пуля:
2018-12-23 U Пуля [01-10 из 10] (2018) WEBRip от Generalfilm | КПК 1.74 GB ↑ 44 ↓ 22
2018-12-23 U Пуля [01-10 из 10] (2018) WEBRip от Files-x 5.94 GB ↑ 202 ↓ 133
2018-12-22 U Пуля [01-10 из 10] (2018) WEBRip 1080p от ExKinoRay 20.07 GB ↑ 82 ↓ 148
2018-12-22 U Пуля [01-10 из 10] (2018) WEBRip-AVC от Files-x 6.93 GB ↑ 78 ↓ 156
2018-12-22 U Пуля [01-08 из 10] (2018) WEBRip от Files-x 4.72 GB ↑ 36 ↓ 16
2018-12-22 U Пуля [01-10 из 10] (2018) WEBRip 720p от GeneralFilm 12.11 GB ↑ 88 ↓ 121
2018-12-22 U Пуля [01-10 из 10] (2018) SATRip 6.08 GB ↑ 465 ↓ 371

Отзывы
Зарегистрируйтесь чтобы добавить комментарий.
Обратная связь
Copyleft ©