↑↓Torrent.by
Поиск
Логин: Регистрация
Пароль: Восстановить пароль
Загрузка...

Решение о ликвидации (2018) HDTVRip от Files-x | Расширенная ТВ-версия

Скачать reshenie-o-likvidacii-2018-hdtvrip-ot-files-x-rasshirennaya-tv-versiya.torrent
U Магнитная ссылка Размер: 2.06 GB Раздают: 77 Качают: 20 Добавлен: 2018-12-23 06:11:45
Решение о ликвидации  (2018)   HDTVRip  от Files-x | Расширенная ТВ-версия

Название: Решение о ликвидации
Год выпуска: 2018
Жанр:  Военный, боевик, драма
Режиссер: Александр Аравин
В ролях: Игорь Петренко, Алексей Вертков, Аюб Цингиев, Алексей Шевченков, Дмитрий Парастаев, Иван Шахназаров, Дагун Омаев, Сослан Фидаров, Кирилл Краснов, Шамиль Алханов

О фильме: Особое задание спецгруппы ФСБ - ликвидация одержимого террориста Шамиля Базгаева. Охота продолжается уже долго, но жестокий лидер боевиков раз за разом ускользает. Однако, когда Базгаеву удается заполучить мощное оружие для осуществления своего самого страшного теракта, у оперативников больше нет права на ошибку. Для этих спецов преодоление себя, смертельный риск и подвиг - не что-то сверхъестественное, а каждодневный тяжелый труд. Но, кажется, даже для них эта операция - за пределами возможностей...

Выпущено: Россия
Студия: Мосфильм
Продолжительность: 02:32:53
Перевод: Не требуется

Файл
Качество:HDTVRip
Видео:  XviD, ~ 1723 Кбит/с, 720x400
Аудио: AC3, 2 ch, 192 Кбит/с

Релиз:
[+] MediaInfo
General
Complete name                    : C:UsersuserDownloadsVideoReshenie.o.likvidacii.2018.HDTVRip. Files-x.avi
Format                           : AVI
Format/Info                      : Audio Video Interleave
Format profile                   : OpenDML
File size                        : 2.06 GiB
Duration                         : 2h 32mn
Overall bit rate                 : 1 928 Kbps
Writing application              : VirtualDubMod 1.5.10.3 | www.virtualdub-fr.org || (build 2550/release)
Writing library                  : VirtualDubMod build 2550/release

Video
ID                               : 0
Format                           : MPEG-4 Visual
Format profile                   : Advanced Simple@L5
Format settings, BVOP            : 1
Format settings, QPel            : No
Format settings, GMC             : No warppoints
Format settings, Matrix          : Custom
Codec ID                         : XVID
Codec ID/Hint                    : XviD
Duration                         : 2h 32mn
Bit rate                         : 1 723 Kbps
Width                            : 720 pixels
Height                           : 400 pixels
Display aspect ratio             : 16:9
Frame rate                       : 25.000 fps
Color space                      : YUV
Chroma subsampling               : 4:2:0
Bit depth                        : 8 bits
Scan type                        : Progressive
Compression mode                 : Lossy
Bits/(Pixel*Frame)               : 0.239
Stream size                      : 1.84 GiB (89%)
Writing library                  : XviD 73

Audio
ID                               : 1
Format                           : AC-3
Format/Info                      : Audio Coding 3
Mode extension                   : CM (complete main)
Codec ID                         : 2000
Duration                         : 2h 32mn
Bit rate mode                    : Constant
Bit rate                         : 192 Kbps
Channel(s)                       : 2 channels
Channel positions                : Front: L R
Sampling rate                    : 48.0 KHz
Bit depth                        : 16 bits
Compression mode                 : Lossy
Stream size                      : 210 MiB (10%)
Alignment                        : Split accross interleaves
Interleave, duration             : 40 ms (1.00 video frame)
Interleave, preload duration     : 500 ms



Скриншоты:
[+] Всего файлов в раздаче - 1:
Reshenie.o.likvidacii.2018.HDTVRip. Files-x.avi2.06 GB

Текущая раздача:
ДатаКомментарии    РазмерПиры
2018-12-23 U Решение о ликвидации (2018) HDTVRip от Files-x | Расширенная ТВ-версия 2.06 GB ↑ 77 ↓ 20

Показать еще раздачи по запросу решение:
2018-12-30 U Решение о ликвидации (2018) HDTV 1080i | Расширенная ТВ-версия 8.18 GB ↑ 40 ↓ 19
2018-12-23 U Решение о ликвидации (2018) HDTVRip-AVC от Files-x | Расширенная ТВ-версия 2.04 GB ↑ 107 ↓ 29
2018-09-05 U Соломоново решение [01-04 из 04] (2018) WEB-DLRip от Files-x 2.35 GB ↑ 55 ↓ 39
2018-08-27 U Решение о ликвидации (2018) BDRemux 1080p от OlLanDGroup | Лицензия 19.37 GB ↑ 52 ↓ 30
2018-08-27 U Решение о ликвидации (2018) HDRip от GeneralFilm | Лицензия 745.04 MB ↑ 78 ↓ 18
2018-08-27 U Решение о ликвидации (2018) BDRip-AVC от OlLanDGroup | Лицензия 1.46 GB ↑ 195 ↓ 34
2018-08-26 U Решение о ликвидации (2018) HDRip от MegaPeer | Лицензия 744.79 MB ↑ 100 ↓ 36

Отзывы
Зарегистрируйтесь чтобы добавить комментарий.
Обратная связь
Copyleft ©