↑↓Torrent.by
Поиск
Логин: Регистрация
Пароль: Восстановить пароль
Загрузка...

Ужастики 2: Беспокойный Хэллоуин / Goosebumps 2: Haunted Halloween (2018) WEB-DL 720p от селезень | iTunes

Скачать uzhastiki-2-bespokoynyy-hellouin-goosebumps-haunted-halloween-2018-web-dl-720p-ot-selezen-itunes.torrent
U Магнитная ссылка Размер: 3.09 GB Раздают: 121 Качают: 56 Добавлен: 2018-12-24 08:42:43
Ужастики 2: Беспокойный Хэллоуин / Goosebumps 2: Haunted Halloween (2018) WEB-DL 720p от селезень | iTunes

Название: Ужастики 2: Беспокойный Хэллоуин
Оригинальное название: Goosebumps 2: Haunted Halloween
Год выхода: 2018
Жанр: Ужасы, фэнтези, комедия, приключения, семейный
Режиссер: Эри Сандел
В ролях: Мэдисон Айсмен, Джереми Рэй Тейлор, Калил Харрис, Венди МакЛендон-Кови, Кен Жонг, Мик Вингерт, Крис Парнелл, Брайс Касс, Пейтон Уич, Шэри Хидли, Кристиан Финлейсон, Мэттью Дж. Васкес, Кортни Лорен Каммингс, Джесси Гоеи, Дрю Шейд, Тайлер Силва, Сидни Баллок

О фильме: В заброшенном доме парочка ребят находит странную книгу «Беспокойный Хэллоуин» Р. Л. Стайна. Друзья быстро понимают, почему книгу спрятали подальше от всех, когда небольшой городок заполняют монстры разной степени ужасности.

Страна: США, Великобритания
Студия: Columbia Pictures Corporation, Original Film, Scholastic Entertainment
Продолжительность: 01:29:46
Перевод: Дублированный | iTunes

Качество: WEB-DL 720p
Видео: MPEG-4 AVC, 1280x530, 4031 Kbit/s, 23.976 fps
Звук:
Аудио #01: 48 kHz, AC3, 5.1, 384 Kbps | iTunes | RUS |
Аудио #02: 48 kHz, AAC, 2.0, 125 Kbps | iTunes | RUS |
Аудио #03: 48 kHz, AC3, 5.1, 384 Kbps | Оригинал |  ENG |
Субтитры: Русские (Forced, full), украинские (Full), английские

Релиз:


[+] MI
General
Unique ID                   : 226371136503704007896921568713101383917 (0xAA4D7EBA8812ECBF8A448C4630E598ED)
Complete name               : D:Video111Goosebumps.Haunted.Halloween.2018.WEB-DL.720p.seleZen.mkv
Format                      : Matroska
Format version              : Version 4
File size                   : 3.09 GiB
Duration                    : 1 h 29 min
Overall bit rate            : 4 927 kb/s
Movie name                  : Goosebumps Haunted Halloween 2018 from селезень
Encoded date                : UTC 2018-12-23 20:41:06
Writing application         : mkvmerge v29.0.0 ('Like It Or Not') 64-bit
Writing library             : libebml v1.3.6 + libmatroska v1.4.9

Video
ID                          : 1
Format                      : AVC
Format/Info                 : Advanced Video Codec
Format profile              : Main@L3.1
Format settings             : 2 Ref Frames
Format settings, CABAC      : No
Format settings, ReFrames   : 2 frames
Codec ID                    : V_MPEG4/ISO/AVC
Duration                    : 1 h 29 min
Bit rate                    : 4 031 kb/s
Width                       : 1 280 pixels
Height                      : 530 pixels
Display aspect ratio        : 2.40:1
Frame rate mode             : Constant
Frame rate                  : 23.976 (24000/1001) FPS
Color space                 : YUV
Chroma subsampling          : 4:2:0
Bit depth                   : 8 bits
Scan type                   : Progressive
Bits/(Pixel*Frame)          : 0.248
Stream size                 : 2.53 GiB (82%)
Language                    : English
Default                     : Yes
Forced                      : No
Color range                 : Limited
Color primaries             : BT.709
Transfer characteristics    : BT.709
Matrix coefficients         : BT.709

Audio #1
ID                          : 2
Format                      : AC-3
Format/Info                 : Audio Coding 3
Commercial name             : Dolby Digital
Codec ID                    : A_AC3
Duration                    : 1 h 29 min
Bit rate mode               : Constant
Bit rate                    : 384 kb/s
Channel(s)                  : 6 channels
Channel layout              : L R C LFE Ls Rs
Sampling rate               : 48.0 kHz
Frame rate                  : 31.250 FPS (1536 SPF)
Bit depth                   : 16 bits
Compression mode            : Lossy
Stream size                 : 247 MiB (8%)
Title                       : iTunes
Language                    : Russian
Service kind                : Complete Main
Default                     : Yes
Forced                      : Yes

Audio #2
ID                          : 3
Format                      : AAC LC
Format/Info                 : Advanced Audio Codec Low Complexity
Codec ID                    : A_AAC-2
Duration                    : 1 h 29 min
Bit rate                    : 125 kb/s
Channel(s)                  : 2 channels
Channel layout              : L R
Sampling rate               : 44.1 kHz
Frame rate                  : 43.066 FPS (1024 SPF)
Compression mode            : Lossy
Stream size                 : 80.2 MiB (3%)
Title                       : iTunes
Language                    : Ukrainian
Default                     : No
Forced                      : No

Audio #3
ID                          : 4
Format                      : AC-3
Format/Info                 : Audio Coding 3
Commercial name             : Dolby Digital
Codec ID                    : A_AC3
Duration                    : 1 h 29 min
Bit rate mode               : Constant
Bit rate                    : 384 kb/s
Channel(s)                  : 6 channels
Channel layout              : L R C LFE Ls Rs
Sampling rate               : 48.0 kHz
Frame rate                  : 31.250 FPS (1536 SPF)
Bit depth                   : 16 bits
Compression mode            : Lossy
Stream size                 : 247 MiB (8%)
Title                       : Original
Language                    : English
Service kind                : Complete Main
Default                     : No
Forced                      : No

Text #1
ID                          : 5
Format                      : UTF-8
Codec ID                    : S_TEXT/UTF8
Codec ID/Info               : UTF-8 Plain Text
Duration                    : 1 h 1 min
Bit rate                    : 0 b/s
Count of elements           : 3
Stream size                 : 105 Bytes (0%)
Title                       : Forced
Language                    : Russian
Default                     : Yes
Forced                      : Yes

Text #2
ID                          : 6
Format                      : UTF-8
Codec ID                    : S_TEXT/UTF8
Codec ID/Info               : UTF-8 Plain Text
Duration                    : 1 h 28 min
Bit rate                    : 80 b/s
Count of elements           : 1122
Stream size                 : 52.0 KiB (0%)
Title                       : Full
Language                    : Russian
Default                     : No
Forced                      : No

Text #3
ID                          : 7
Format                      : UTF-8
Codec ID                    : S_TEXT/UTF8
Codec ID/Info               : UTF-8 Plain Text
Duration                    : 1 h 28 min
Bit rate                    : 78 b/s
Count of elements           : 1125
Stream size                 : 50.7 KiB (0%)
Title                       : Full
Language                    : Ukrainian
Default                     : No
Forced                      : No

Text #4
ID                          : 8
Format                      : UTF-8
Codec ID                    : S_TEXT/UTF8
Codec ID/Info               : UTF-8 Plain Text
Duration                    : 1 h 27 min
Bit rate                    : 59 b/s
Count of elements           : 1277
Stream size                 : 38.0 KiB (0%)
Title                       : Full
Language                    : English
Default                     : No
Forced                      : No

Menu
00:00:00.000                : en:1
00:04:32.439                : en:2
00:11:15.174                : en:3
00:18:42.913                : en:4
00:21:40.632                : en:5
00:27:22.348                : en:6
00:32:36.119                : en:7
00:37:47.430                : en:8
00:45:13.917                : en:9
00:50:10.712                : en:10
00:56:16.702                : en:11
01:00:34.750                : en:12
01:05:27.125                : en:13
01:09:24.110                : en:14
01:14:36.921                : en:15
01:20:28.314                : en:16



Скриншоты:
[+] Всего файлов в раздаче - 1:
Goosebumps.Haunted.Halloween.2018.WEB-DL.720p.seleZen.mkv3.09 GB

Текущая раздача:
ДатаКомментарии    РазмерПиры
2018-12-24 U Ужастики 2: Беспокойный Хэллоуин / Goosebumps 2: Haunted Halloween (2018) WEB-DL 720p от селезень | iTunes 3.09 GB ↑ 121 ↓ 56

Показать еще раздачи по запросу ужастики:
2019-01-06 U Ужастики 2: Беспокойный Хэллоуин / Goosebumps 2: Haunted Halloween (2018) BDRip от MegaPeer | iTunes 1К1.42 GB ↑ 358 ↓ 11
2018-12-26 U Ужастики 2: Беспокойный Хэллоуин / Goosebumps 2: Haunted Halloween (2018) WEB-DLRip от Scarabey | iTunes 1.44 GB ↑ 62 ↓ 20
2018-12-24 U Ужастики 2: Беспокойный Хэллоуин / Goosebumps 2: Haunted Halloween (2018) WEB-DLRip от ExKinoRay | iTunes 1.46 GB ↑ 157 ↓ 68
2018-12-24 U Ужастики 2: Беспокойный Хэллоуин / Goosebumps 2: Haunted Halloween (2018) WEB-DLRip-AVC от OlLanDGroup | iTunes 1.76 GB ↑ 67 ↓ 30
2018-12-24 U Ужастики 2: Беспокойный Хэллоуин / Goosebumps 2: Haunted Halloween (2018) WEB-DLRip от MegaPeer | iTunes 1.46 GB ↑ 206 ↓ 102
2018-12-24 U Ужастики 2: Беспокойный Хэллоуин / Goosebumps 2: Haunted Halloween (2018) WEB-DL 1080p от селезень | iTunes 3.40 GB ↑ 267 ↓ 149
2016-04-25 U Ужастики / Goosebumps (2015) BDRip-AVC от New-Team | Лицензия 745.69 MB ↑ 51 ↓ 1

Отзывы
Зарегистрируйтесь чтобы добавить комментарий.
Обратная связь
Copyleft ©