↑↓Torrent.by
Поиск
Логин: Регистрация
Пароль: Восстановить пароль
Загрузка...

Хищник / The Predator (2018) BDRip 1080p от qqss44 & MegaPeer | Лицензия

Скачать hischnik-the-predator-2018-bdrip-1080p-ot-qqss44-megapeer-licenziya.torrent
U Магнитная ссылка Размер: 7.61 GB Раздают: 136 Качают: 58 Добавлен: 2018-12-25 07:29:33
Хищник / The Predator (2018) BDRip 1080p от qqss44 & MegaPeer | Лицензия

Название: Хищник
Оригинальное название: The Predator
Год выпуска: 2018
Жанр: Ужасы, фантастика, боевик, триллер, приключения
Режиссер: Шейн Блэк
В ролях: Бойд Холбрук, Треванте Роудс, Джейкоб Трамбле, Кигэн-Майкл Ки, Оливия Манн, Стерлинг К. Браун, Томас Джейн, Элфи Оуэн-Аллен, Августо Агилера, Джейк Бьюзи

О фильме:
Главный герой, бывший морпех, обнаруживает злобную инопланетную расу на Земле, но никто не верит ему, что эти твари существуют. Его сын-аутист, которого все обижают в школе, становится ключевой фигурой в схватке с Хищниками, поскольку мальчик умеет невероятно быстро учить языки и, судя по всему, сможет понять пришельцев.

Страна: США, Канада
Студия: Twentieth Century Fox, Davis Entertainment, TSG Entertainment
Продолжительность: 01:46:56
Перевод: Дублированный | Лицензия

Файл
Формат: MKV, BDRip 1080p
Видео: MPEG-4 AVC, 9737 Кбит/с, 1920x804
Aудио#1: [RUS] AC3 | 48 KHz | 5.1 (Front: L С R Side: L R) + LFE | ~448 kbps
Субтитры: русские форсированные (стилизованные, анимированные, вшиты в видео) + полные
Релиз от:


[+] МИ


Общее
Уникальный идентификатор                 : 254258566337576076921205800339268725010 (0xBF486B2CD1F2CD39B95D8619EB086912)
Полное имя                               : H:The.Predator.(2018).BDRip-1080p.MegaPeer.(qqss44).mkv
Формат                                   : Matroska
Версия формата                           : Version 2
Размер файла                             : 7,61 Гбайт
Продолжительность                        : 1 ч. 46 м.
Общий поток                              : 10,2 Мбит/сек
Название фильма                          : The.Predator.(2018).BDRip-1080p.MegaPeer.(qqss44)
Дата кодирования                         : UTC 2018-12-24 14:05:45
Программа кодирования                    : mkvmerge v7.8.0 ('River Man') 32bit built on Apr  3 2015 12:11:22
Библиотека кодирования                   : libebml v1.3.1 + libmatroska v1.4.2

Видео
Идентификатор                            : 1
Формат                                   : AVC
Формат/Информация                        : Advanced Video Codec
Профиль формата                          : High@L4.1
Параметр CABAC формата                   : Да
Параметр ReFrames формата                : 5 кадров
Идентификатор кодека                     : V_MPEG4/ISO/AVC
Продолжительность                        : 1 ч. 46 м.
Битрейт                                  : 9737 Кбит/сек
Ширина                                   : 1920 пикселей
Высота                                   : 804 пикселя
Соотношение сторон                       : 2,40:1
Режим частоты кадров                     : Постоянный
Частота кадров                           : 23,976 (24000/1001) кадра/сек
Цветовое пространство                    : YUV
Субдискретизация насыщенности            : 4:2:0
Битовая глубина                          : 8 бит
Тип развёртки                            : Прогрессивная
Бит/(Пиксели*Кадры)                      : 0.263
Размер потока                            : 7,12 Гбайт (94%)
Библиотека кодирования                   : x264 core 152 r2851 ba24899
Настройки программы                      : cabac=1 / ref=5 / deblock=1:-3:-3 / analyse=0x3:0x113 / me=umh / subme=11 / psy=1 / psy_rd=1.00:0.00 / mixed_ref=1 / me_range=32 / chroma_me=1 / trellis=2 / 8x8dct=1 / cqm=0 / deadzone=21,11 / fast_pskip=0 / chroma_qp_offset=-2 / threads=12 / lookahead_threads=2 / sliced_threads=0 / nr=0 / decimate=0 / interlaced=0 / bluray_compat=0 / constrained_intra=0 / bframes=8 / b_pyramid=2 / b_adapt=2 / b_bias=0 / direct=3 / weightb=1 / open_gop=0 / weightp=2 / keyint=250 / keyint_min=23 / scenecut=40 / intra_refresh=0 / rc_lookahead=40 / rc=2pass / mbtree=0 / bitrate=9737 / ratetol=1.0 / qcomp=0.70 / qpmin=0 / qpmax=69 / qpstep=4 / cplxblur=20.0 / qblur=0.5 / vbv_maxrate=50000 / vbv_bufsize=62500 / nal_hrd=none / filler=0 / ip_ratio=1.40 / pb_ratio=1.30 / aq=3:0.80
Язык                                     : English
Default                                  : Да
Forced                                   : Нет

Аудио
Идентификатор                            : 2
Формат                                   : AC-3
Формат/Информация                        : Audio Coding 3
Расширение режима                        : CM (complete main)
Параметр Endianness формата              : Big
Идентификатор кодека                     : A_AC3
Продолжительность                        : 1 ч. 46 м.
Вид битрейта                             : Постоянный
Битрейт                                  : 448 Кбит/сек
Каналы                                   : 6 каналов
Расположение каналов                     : Front: L C R, Side: L R, LFE
Частота                                  : 48,0 КГц
Частота кадров                           : 31,250 кадров/сек (1536 spf)
Метод сжатия                             : С потерями
Размер потока                            : 343 Мбайт (4%)
Язык                                     : Russian
Default                                  : Да
Forced                                   : Нет

Текст
Идентификатор                            : 3
Формат                                   : UTF-8
Идентификатор кодека                     : S_TEXT/UTF8
Идентификатор кодека/Информация          : UTF-8 Plain Text
Заголовок                                : FULL
Язык                                     : Russian
Default                                  : Нет
Forced                                   : Нет

Меню
00:00:00.000                             : :绗?01 绔?
00:02:00.704                             : :绗?02 绔?
00:08:32.929                             : :绗?03 绔?
00:09:45.335                             : :绗?04 绔?
00:13:47.660                             : :绗?05 绔?
00:16:09.177                             : :绗?06 绔?
00:17:36.430                             : :绗?07 绔?
00:20:21.470                             : :绗?08 绔?
00:25:01.959                             : :绗?09 绔?
00:27:36.280                             : :绗?10 绔?
00:31:10.077                             : :绗?11 绔?
00:36:23.348                             : :绗?12 绔?
00:38:00.653                             : :绗?13 绔?
00:39:42.547                             : :绗?14 绔?
00:44:34.714                             : :绗?15 绔?
00:49:15.911                             : :绗?16 绔?
00:53:18.612                             : :绗?17 绔?
00:58:34.511                             : :绗?18 绔?
00:59:58.512                             : :绗?19 绔?
01:03:16.292                             : :绗?20 绔?
01:06:36.826                             : :绗?21 绔?
01:09:51.020                             : :绗?22 绔?
01:12:26.634                             : :绗?23 绔?
01:15:55.634                             : :绗?24 绔?
01:18:52.686                             : :绗?25 绔?
01:21:24.630                             : :绗?26 绔?
01:23:08.942                             : :绗?27 绔?
01:27:08.807                             : :绗?28 绔?
01:30:55.241                             : :绗?29 绔?
01:32:14.821                             : :绗?30 绔?
01:35:08.411                             : :绗?31 绔?
01:40:00.203                             : :绗?32 绔?




Скриншоты:
[+] Всего файлов в раздаче - 1:
The.Predator.(2018).BDRip-1080p.MegaPeer.(qqss44).mkv7.61 GB

Текущая раздача:
ДатаКомментарии    РазмерПиры
2018-12-25 U Хищник / The Predator (2018) BDRip 1080p от qqss44 & MegaPeer | Лицензия 7.61 GB ↑ 136 ↓ 58

Показать еще раздачи по запросу хищник:
2018-12-28 U Хищник / The Predator (2018) HDRip от Scarabey | Лицензия 1.45 GB ↑ 76 ↓ 8
2018-12-25 U Хищник / The Predator (2018) BDRip-AVC от HELLYWOOD | Лицензия 1.46 GB ↑ 124 ↓ 23
2018-12-25 U Хищник / The Predator (2018) BDRemux 1080p от селезень | D, P, A | Лицензия 28.89 GB ↑ 63 ↓ 39
2018-12-25 U Хищник / The Predator (2018) BDRip 720p от селезень | D, P, A | Лицензия 9.08 GB ↑ 45 ↓ 18
2018-12-25 U Хищник / The Predator (2018) BDRip от MegaPeer | D, A | Лицензия 2.18 GB ↑ 49 ↓ 22
2018-12-24 U Хищник / The Predator (2018) BDRip 1080p от селезень | D, P, A | Лицензия 14.43 GB ↑ 96 ↓ 100
2018-12-24 U Хищник / The Predator (2018) BDRip от MegaPeer | Лицензия 1.46 GB ↑ 94 ↓ 84

Отзывы
Зарегистрируйтесь чтобы добавить комментарий.
Обратная связь
Copyleft ©