↑↓Torrent.by
Поиск
Логин: Регистрация
Пароль: Восстановить пароль
Загрузка...

Столкновение / Interference (2018) WEBRip 720p | L2

Скачать stolknovenie-interference-2018-webrip-720p-l2.torrent
U Магнитная ссылка Размер: 1.59 GB Раздают: 126 Качают: 27 Добавлен: 2018-12-25 07:29:41
Столкновение / Interference (2018) WEBRip 720p | L2

Название: Столкновение
Оригинальное название: Interference

Год выхода: 2018
Жанр: Драма, криминал, детектив
Режиссер: Линда Ди Франко
В ролях: Том Уисдом, Виктория Габриэлль Платт, Брюс Томас, Джейн Тэйни, Кейлб Лонг, Леона Парамински, Лови Андервуд, Данте Палминтери, Дина Морроне, Роми Пак
О фильме:
Уходящий в отставку детектив пытается установить личность наполовину сожженной женщины, найденной возле лодки окружного прокурора, который преследует серийного детоубийцу.

Страна: США, Dark Panda Production, LDF Pictures, La Dolce Vita Films
Продолжительность: 01:20:47
Перевод: Любительский (двухголосый закадровый) | HiWay Grope

Файл
Кодек: MPEG-4 AVC/x.264
Качество: WEBRip 720p
Видео: 1280x720, 23.976 fps, ~2620 kbps, 0.119 bit/pixel
Звук:
Аудио rus: AC3, 48 kHz, 2 ch, 192 Kbps
Субтитры: отсутствуют

Реклама: присутствует

Семпл

Релиз от: HiWay Grope


[+] MediaInfo:

General
Unique ID                                : 262575429257741185277611826592240091957 (0xC58A302D024889DAE4ECC9C8746FC335)
Complete name                            : D:Interference.2018.720p.WEBRip.HiWayGropeInterference.2018.720p.WEBRip.HiWayGrope.mkv
Format                                   : Matroska
Format version                           : Version 4
File size                                : 1.59 GiB
Duration                                 : 1 h 20 min
Overall bit rate                         : 2 814 kb/s
Encoded date                             : UTC 2018-12-24 15:33:49
Writing application                      : mkvmerge v28.1.0 ('Morning Child') 64-bit
Writing library                          : libebml v1.3.6 + libmatroska v1.4.9

Video
ID                                       : 1
Format                                   : AVC
Format/Info                              : Advanced Video Codec
Format profile                           : Main@L4.1
Format settings                          : CABAC / 4 Ref Frames
Format settings, CABAC                   : Yes
Format settings, RefFrames               : 4 frames
Codec ID                                 : V_MPEG4/ISO/AVC
Duration                                 : 1 h 20 min
Bit rate                                 : 2 620 kb/s
Width                                    : 1 280 pixels
Height                                   : 720 pixels
Display aspect ratio                     : 16:9
Frame rate mode                          : Constant
Frame rate                               : 23.976 (24000/1001) FPS
Standard                                 : NTSC
Color space                              : YUV
Chroma subsampling                       : 4:2:0
Bit depth                                : 8 bits
Scan type                                : Progressive
Bits/(Pixel*Frame)                       : 0.119
Stream size                              : 1.48 GiB (93%)
Language                                 : English
Default                                  : Yes
Forced                                   : No
Color range                              : Limited
Color primaries                          : BT.709
Transfer characteristics                 : BT.709
Matrix coefficients                      : BT.709

Audio
ID                                       : 2
Format                                   : AC-3
Format/Info                              : Audio Coding 3
Commercial name                          : Dolby Digital
Codec ID                                 : A_AC3
Duration                                 : 1 h 20 min
Bit rate mode                            : Constant
Bit rate                                 : 192 kb/s
Channel(s)                               : 2 channels
Channel layout                           : L R
Sampling rate                            : 48.0 kHz
Frame rate                               : 31.250 FPS (1536 SPF)
Bit depth                                : 16 bits
Compression mode                         : Lossy
Stream size                              : 111 MiB (7%)
Language                                 : Russian
Service kind                             : Complete Main
Default                                  : Yes
Forced                                   : No




Скриншоты:
[+] Всего файлов в раздаче - 1:
Interference.2018.720p.WEBRip.HiWayGrope.mkv1.59 GB

Текущая раздача:
ДатаКомментарии    РазмерПиры
2018-12-25 U Столкновение / Interference (2018) WEBRip 720p | L2 1.59 GB ↑ 126 ↓ 27

Похожие раздачи по запросу - столкновение:
2018-12-26 U Столкновение / Interference (2018) WEBRip 1080p | HiWayGrope 4.64 GB ↑ 48 ↓ 11
2018-07-18 U Столкновение / Crash (2004) BDRip-AVC от 0ptimus | D, P2, A | Режиссерская версия / Director's Cut 1К3.89 GB ↑ 120 ↓ 12
2013-11-18 U Столкновение с судьбой / Brush with Fate (2003) DVDRip | P 1.37 GB ↑ 17 ↓ 18
2013-10-30 U Столкновение континентов / Clash of the Continents [S01] (2010) HDTVRip 1080p | D 7.42 GB ↑ 84 ↓ 13
2013-10-22 U National Geographic. Столкновение с астероидом. 24 часа, изменившие мир / 24 Hours After. Asteroid Impact (2009) HDTVRip 3К651.68 MB ↑ 32 ↓ 2
2013-10-21 U National Geographic. Столкновение континентов / Clash of the Continents (2010) HDRip 1К1.18 GB ↑ 31 ↓ 15

Отзывы
Зарегистрируйтесь чтобы добавить комментарий.
Обратная связь
Copyleft ©