↑↓Torrent.by
Поиск
Логин: Регистрация
Пароль: Восстановить пароль
Загрузка...

Высший пилотаж / Spun (2002) WEB-DL 1080p | P, P2, L2

Скачать vysshiy-pilotazh-spun-2002-web-dl-1080p-p-p2-l2.torrent
U Магнитная ссылка Размер: 8.31 GB Раздают: 76 Качают: 23 Добавлен: 2018-12-25 07:30:46
Высший пилотаж / Spun (2002) WEB-DL 1080p | P, P2, L2

Название: Высший пилотаж
Оригинальное название: Spun
Год выхода: 2002
Страна: США
Студия: Muse Productions, Brink Films, Little Magic Films
Продолжительность: 01:41:09
Жанр: драма, комедия, криминал

Режиссер: Йонас Окерлунд
В ролях: Джейсон Шварцман, Микки Рурк, Бриттани Мерфи, Джон Легуизамо, Патрик Фьюджит, Мена Сувари, Хлоя Хантер, Элиса Боканегра, Джулия Мендоза, Чайна Чоу, Эрик Роберт, ...

Перевод:
- Профессиональный (многоголосый, закадровый) ?
- Профессиональный (двуголосый, закадровый) ?
- Любительский (двуголосый, закадровый) ?
- Субтитры

О фильме: Росс, безработный студент-недоучка, знакомится в доме своего дилера «Паука» Майка с производителем метамфетамина Куком и его подружкой-стриптизёршей. Так начинается головокружительное трёхдневное путешествие Росса по волнам безумия, в котором он потеряет представление не только о времени и месте, но и самом себе. Сможет ли он вернуться?…

Кодек: MPEG4/ISO/AVC
Качество: WEB-DL 1080p
Видео: 1920x1040, 10000 kbps, 23,976 fps
Аудио #1: AC-3, 6 ch, 384 kbps (Rus) - MVO
Аудио #2: AC-3, 6 ch, 448 kbps (Rus) - DVO
Аудио #3: AC-3, 6 ch, 448 kbps (Rus) - DVOL
Аудио #4: AC-3, 6 ch, 448 kbps (Eng) - DVD
Аудио #5: AC-3, 2 ch, 192 kbps (Eng) - AMZN
Субтитры: русские, английские
MVO Екатеринбург-Арт - AC-3, 2 ch, 192 kbps


[+] Дополнительная информация 18+
На Амазоне кое чё замазали, по  сравнению с немецким HDTV:

 

но и немцы местами не удержались:

 



[+] MediaInfo
Общее
Уникальный идентификатор : 194707935740660781402564257322820765960 (0x927B626712CF55DE85339DD025CD0908)
Полное имя : Высший пилотаж (Spun) 2002 WEBRip 1080p.mkv
Формат : Matroska
Версия формата : Version 2
Размер файла : 8,31 Гбайт
Продолжительность : 1 ч. 41 м.
Общий поток : 11,8 Мбит/сек
Дата кодирования : UTC 2018-12-21 22:21:54
Программа кодирования : mkvmerge v4.0.0 ('The Stars were mine') сборка от Jun 6 2010 16:18:42
Библиотека кодирования : libebml v1.0.0 + libmatroska v1.0.0

Видео
Идентификатор : 1
Формат : AVC
Формат/Информация : Advanced Video Codec
Профиль формата : High@L4
Параметр CABAC формата : Да
Параметр ReFrames формата : 4 кадра
Параметр GOP формата : M=4, N=48
Идентификатор кодека : V_MPEG4/ISO/AVC
Продолжительность : 1 ч. 41 м.
Вид битрейта : Постоянный
Битрейт : 10000 Кбит/сек
Ширина : 1920 пикселей
Высота : 1040 пикселей
Соотношение сторон : 1,85:1
Режим частоты кадров : Постоянный
Частота кадров : 23,976 (24000/1001) кадра/сек
Цветовое пространство : YUV
Субдискретизация насыщенности : 4:2:0
Битовая глубина : 8 бит
Тип развёртки : Прогрессивная
Бит/(Пиксели*Кадры) : 0.209
Размер потока : 6,79 Гбайт (82%)
Язык : English
Default : Нет
Forced : Нет
Цветовой диапазон : Limited
Основные цвета : BT.709
Характеристики трансфера : BT.709
Коэффициенты матрицы : BT.709

Аудио #1
Идентификатор : 2
Формат : AC-3
Формат/Информация : Audio Coding 3
Расширение режима : CM (complete main)
Параметр Endianness формата : Big
Идентификатор кодека : A_AC3
Продолжительность : 1 ч. 41 м.
Вид битрейта : Постоянный
Битрейт : 384 Кбит/сек
Каналы : 6 каналов
Расположение каналов : Front: L C R, Side: L R, LFE
Частота : 48,0 КГц
Частота кадров : 31,250 кадров/сек (1536 spf)
Метод сжатия : С потерями
Размер потока : 278 Мбайт (3%)
Заголовок : MVO
Язык : Russian
Default : Нет
Forced : Нет

Аудио #2
Идентификатор : 3
Формат : AC-3
Формат/Информация : Audio Coding 3
Расширение режима : CM (complete main)
Параметр Endianness формата : Big
Идентификатор кодека : A_AC3
Продолжительность : 1 ч. 41 м.
Вид битрейта : Постоянный
Битрейт : 448 Кбит/сек
Каналы : 6 каналов
Расположение каналов : Front: L C R, Side: L R, LFE
Частота : 48,0 КГц
Частота кадров : 31,250 кадров/сек (1536 spf)
Метод сжатия : С потерями
Размер потока : 324 Мбайт (4%)
Заголовок : DVO
Язык : Russian
Default : Нет
Forced : Нет

Аудио #3
Идентификатор : 4
Формат : AC-3
Формат/Информация : Audio Coding 3
Расширение режима : CM (complete main)
Параметр Endianness формата : Big
Идентификатор кодека : A_AC3
Продолжительность : 1 ч. 41 м.
Вид битрейта : Постоянный
Битрейт : 448 Кбит/сек
Каналы : 6 каналов
Расположение каналов : Front: L C R, Side: L R, LFE
Частота : 48,0 КГц
Частота кадров : 31,250 кадров/сек (1536 spf)
Метод сжатия : С потерями
Размер потока : 324 Мбайт (4%)
Заголовок : DVOL
Язык : Russian
Default : Нет
Forced : Нет

Аудио #4
Идентификатор : 5
Формат : AC-3
Формат/Информация : Audio Coding 3
Расширение режима : CM (complete main)
Параметр Endianness формата : Big
Идентификатор кодека : A_AC3
Продолжительность : 1 ч. 41 м.
Вид битрейта : Постоянный
Битрейт : 448 Кбит/сек
Каналы : 6 каналов
Расположение каналов : Front: L C R, Side: L R, LFE
Частота : 48,0 КГц
Частота кадров : 31,250 кадров/сек (1536 spf)
Метод сжатия : С потерями
Размер потока : 324 Мбайт (4%)
Заголовок : DVD
Язык : English
Default : Нет
Forced : Нет

Аудио #5
Идентификатор : 6
Формат : AC-3
Формат/Информация : Audio Coding 3
Расширение режима : CM (complete main)
Параметр Endianness формата : Big
Идентификатор кодека : A_AC3
Продолжительность : 1 ч. 41 м.
Вид битрейта : Постоянный
Битрейт : 192 Кбит/сек
Каналы : 2 канала
Расположение каналов : Front: L R
Частота : 48,0 КГц
Частота кадров : 31,250 кадров/сек (1536 spf)
Метод сжатия : С потерями
Размер потока : 139 Мбайт (2%)
Заголовок : AMZN
Язык : English
Default : Нет
Forced : Нет

Текст #1
Идентификатор : 7
Формат : UTF-8
Идентификатор кодека : S_TEXT/UTF8
Идентификатор кодека/Информация : UTF-8 Plain Text
Язык : Russian
Default : Нет
Forced : Нет

Текст #2
Идентификатор : 8
Формат : UTF-8
Идентификатор кодека : S_TEXT/UTF8
Идентификатор кодека/Информация : UTF-8 Plain Text
Язык : English
Default : Нет
Forced : Нет

Текст #3
Идентификатор : 9
Формат : UTF-8
Идентификатор кодека : S_TEXT/UTF8
Идентификатор кодека/Информация : UTF-8 Plain Text
Заголовок : SDH
Язык : English
Default : Нет
Forced : Нет



Скриншоты:
[+] Всего файлов в раздаче - 1:
Высший пилотаж (Spun) 2002 WEBRip 1080p.mkv8.31 GB

Текущая раздача:
ДатаКомментарии    РазмерПиры
2018-12-25 U Высший пилотаж / Spun (2002) WEB-DL 1080p | P, P2, L2 1 К 8.31 GB ↑ 76 ↓ 23

Похожие раздачи по запросу - высший:
2015-11-12 U Высший класс / The Leisure Class (2015) HDTVRip | P 1.37 GB ↑ 790 ↓ 1

Отзывы
pympalas
Классный фильм, сумасшедший рип!

Зарегистрируйтесь чтобы добавить комментарий.
Обратная связь
Copyleft ©