↑↓Torrent.by
Поиск
Логин: Регистрация
Пароль: Восстановить пароль
Загрузка...

Хакер / Hacker (2016) WEB-DLRip-AVC от OlLanDGroup | Локализованная версия | D

Скачать haker-hacker-2016-web-dlrip-avc-ot-ollandgroup-lokalizovannaya-versiya-d.torrent
U Магнитная ссылка Размер: 1.46 GB Раздают: 67 Качают: 15 Добавлен: 2018-12-26 06:11:53
Хакер / Hacker (2016) WEB-DLRip-AVC от OlLanDGroup | Локализованная версия | D

Хакер / Hacker
«Real Story. Real Hacker»

Год выпуска: 2016
Страна: США, Таиланд, Казахстан, Гонконг, Канада
Производство: Brillstein Entertainment Partners, Know Rules Media, Sataifilm
Жанр:  Триллер, драма, криминал

Режиссёр: Акан Сатаев
В ролях: Каллэн МакОлифф, Лоррэйн Николсон, Дэниэл Эрик Голд, Клифтон Коллинз мл., Захари Беннетт, Влада Веревко, Геннадий Долганов, Райан Михельсен

Перевод: Дублированный | [Официальный звук]
Субтитры: Нет
Реклама: Отсутствует

Описание: Алекс вместе со своей семьей эмигрировал из Украины в Канаду в поисках лучшей жизни. Но когда в семье наступили финансовые затруднения, парень решает отомстить банку за увольнение матери, наказать коррумпированных банкиров и заодно заработать денег. Алекс вступает в криминальную интернет-организацию DarkWeb, где находит единомышленников и быстро осваивает искусство онлайн-мошенничества. Однако то, что сначала имело благородную цель, вскоре превращается в одержимое увлечение и привлекает внимание как правительства, так и опасных людей, возглавляющих DarkWeb. Основано на реальных событиях.

Качество: WEB-DLRip-AVC | |
Продолжительность: 01:47:31

Формат: MKV
Видео кодек: MPEG-4 AVC
Аудио кодек: AC3
Видео: 1024x428 (2.40:1), 24,000 fps, x264 ~1 685 kbps avg, 0.160 bit/pixel
Аудио #1: 48 kHz, AC3 Dolby Digital, 2 (L,R) ch, ~256.00 kbps avg | RUS

Дата премьеры (мир): 15 сентября 2016
Дата премьеры (РФ):
Цифровой релиз:

Релиз: Rip by:


[+] MediaInfo

Общее
Уникальный идентификатор                 : 308862798414907506581557146688952267945 (0xE85CCFABF2657F1942C47C533BFCF4A9)
Полное имя                               : F:OlLanDGroupHacker.2016.WEB-DLRip(AVC).OllanDGroup.mkv
Формат                                   : Matroska
Версия формата                           : Version 4 / Version 2
Размер файла                             : 1,46 Гбайт
Продолжительность                        : 1 ч. 47 м.
Общий поток                              : 1942 Кбит/сек
Название фильма                          : Hacker.2016   #TorpedoUK#
Дата кодирования                         : UTC 2018-12-25 10:22:07
Программа кодирования                    : mkvmerge v29.0.0 ('Like It Or Not') 64-bit
Библиотека кодирования                   : libebml v1.3.6 + libmatroska v1.4.9

Видео
Идентификатор                            : 1
Формат                                   : AVC
Формат/Информация                        : Advanced Video Codec
Профиль формата                          : High@L4.1
Параметр CABAC формата                   : Да
Параметр ReFrames формата                : 10 кадров
Идентификатор кодека                     : V_MPEG4/ISO/AVC
Продолжительность                        : 1 ч. 47 м.
Битрейт                                  : 1685 Кбит/сек
Ширина                                   : 1024 пикселя
Высота                                   : 428 пикселей
Соотношение сторон                       : 2,40:1
Режим частоты кадров                     : Постоянный
Частота кадров                           : 24,000 кадра/сек
Цветовое пространство                    : YUV
Субдискретизация насыщенности            : 4:2:0
Битовая глубина                          : 8 бит
Тип развёртки                            : Прогрессивная
Бит/(Пиксели*Кадры)                      : 0.160
Размер потока                            : 1,26 Гбайт (87%)
Библиотека кодирования                   : x264 core 146 r2538 121396c
Настройки программы                      : cabac=1 / ref=10 / deblock=1:-2:-3 / analyse=0x3:0x113 / me=umh / subme=11 / psy=1 / psy_rd=0.95:0.07 / mixed_ref=1 / me_range=48 / chroma_me=1 / trellis=2 / 8x8dct=1 / cqm=0 / deadzone=21,11 / fast_pskip=1 / chroma_qp_offset=-3 / threads=6 / lookahead_threads=1 / sliced_threads=0 / nr=0 / decimate=1 / interlaced=0 / bluray_compat=0 / constrained_intra=0 / bframes=11 / b_pyramid=2 / b_adapt=2 / b_bias=0 / direct=3 / weightb=1 / open_gop=0 / weightp=2 / keyint=240 / keyint_min=24 / scenecut=40 / intra_refresh=0 / rc_lookahead=40 / rc=2pass / mbtree=0 / bitrate=1685 / ratetol=1.0 / qcomp=0.60 / qpmin=0 / qpmax=69 / qpstep=4 / cplxblur=20.0 / qblur=0.5 / vbv_maxrate=50000 / vbv_bufsize=62500 / nal_hrd=none / filler=0 / ip_ratio=1.40 / pb_ratio=1.30 / aq=1:1.00
Default                                  : Да
Forced                                   : Нет

Аудио
Идентификатор                            : 2
Формат                                   : AC-3
Формат/Информация                        : Audio Coding 3
Расширение режима                        : CM (complete main)
Параметр Endianness формата              : Big
Идентификатор кодека                     : A_AC3
Продолжительность                        : 1 ч. 47 м.
Вид битрейта                             : Постоянный
Битрейт                                  : 256 Кбит/сек
Каналы                                   : 2 канала
Расположение каналов                     : Front: L R
Частота                                  : 48,0 КГц
Частота кадров                           : 31,250 кадров/сек (1536 spf)
Битовая глубина                          : 16 бит
Метод сжатия                             : С потерями
Размер потока                            : 197 Мбайт (13%)
Заголовок                                : DUB
Язык                                     : Russian
Default                                  : Да
Forced                                   : Нет



Скриншоты:
[+] Всего файлов в раздаче - 1:
Hacker.2016.WEB-DLRip(AVC).OllanDGroup.mkv1.46 GB

Показать еще раздачи по запросу хакер:
Вчера U Хакер №05 (Май) [242] (2019) PDF 38.16 MB ↑ 40 ↓ 5
2019-05-29 U Хакер №04 (Апрель) (2019) PDF 51.99 MB ↑ 76 ↓ 6
2019-05-01 U Хакер №03 [240] (Март) (2019) PDF 37.74 MB ↑ 64 ↓ 9
2019-02-21 U Хакер №01 [238] (Январь) (2019) PDF 43.14 MB ↑ 105 ↓ 12
2019-02-03 U Хакер №12 [237] (Декабрь) (2018) PDF 59.93 MB ↑ 136 ↓ 13
2018-10-27 U Хакер / Hacker (2016) BDRip 1080p | L 8.20 GB ↑ 91 ↓ 28
2018-10-27 U Хакер / Hacker (2016) WEB-DLRip от MegaPeer | Локализованная версия | D 1.46 GB ↑ 307 ↓ 59

Отзывы
Зарегистрируйтесь чтобы добавить комментарий.
Обратная связь
Copyleft ©