↑↓Torrent.by
Поиск
Логин: Регистрация
Пароль: Восстановить пароль
Загрузка...

Год свиньи (2018) WEBRip от GeneralFilm

Скачать god-svini-2018-webrip-ot-generalfilm.torrent
U Магнитная ссылка Размер: 743.56 MB Раздают: 236 Качают: 68 Добавлен: 2018-12-27 12:14:06
Год свиньи (2018) WEBRip от GeneralFilm

Оригинальное название: Год свиньи
Год выпуска: 2018
Жанр:  Комедия
Выпущено: Россия, ГудСториМедиа по заказу телеканала ТНТ
Режиссер: Семён Яковлев
В ролях: Максим Костромыкин, Юлия Александрова, Алина Алексеева, Александр Яценко, Борис Дергачев, Роза Хайруллина, Дарья Руденок, Сергей Стёпин, Юрий Ицков

О фильме: Три новеллы, сюжетные линии которых переплетаются в самый последний и самый безумный день в году — 31 декабря. Молодой интерн впервые едет на дежурство в машине скорой помощи, но о реальной помощи пострадавшим в этот Новый год придется забыть. Тихий праздник одинокой кассирши оказывается под угрозой из-за внезапно упавшей с полки бутылки. Брат хочет признаться своему близнецу в измене с его женой, но все идет под откос из-за испорченной гирлянды…

Качество: WEBRip
Видео: XviD build 73, 720x400 (16:9), 25.000 fps, 1323 Kbps (0.184 bit/pixel)
Аудио: 48.0 kHz, MP3, 2/0 ch, 128 kbps
Продолжительность: 01:11:10
Перевод: Не требуется
Cубтитры: нет

Релиз:


[+] MediaInfo

General
Complete name               : D:RazdachiGod.Svinji.2018.XviD.745Mb.WEB-DLRip.GeneralFilm.avi
Format                      : AVI
Format/Info                 : Audio Video Interleave
File size                   : 744 MiB
Duration                    : 1 h 11 min
Overall bit rate            : 1 461 kb/s
Writing application         : VirtualDubMod 1.5.10.3 | www.virtualdub-fr.org || (build 2550/release)
Writing library             : VirtualDubMod build 2550/release

Video
ID                          : 0
Format                      : MPEG-4 Visual
Format profile              : Advanced Simple@L5
Format settings, BVOP       : 1
Format settings, QPel       : No
Format settings, GMC        : No warppoints
Format settings, Matrix     : Custom
Codec ID                    : XVID
Codec ID/Hint               : XviD
Duration                    : 1 h 11 min
Bit rate                    : 1 323 kb/s
Width                       : 720 pixels
Height                      : 400 pixels
Display aspect ratio        : 16:9
Frame rate                  : 25.000 FPS
Color space                 : YUV
Chroma subsampling          : 4:2:0
Bit depth                   : 8 bits
Scan type                   : Progressive
Compression mode            : Lossy
Bits/(Pixel*Frame)          : 0.184
Stream size                 : 673 MiB (91%)
Writing library             : XviD 73

Audio
ID                          : 1
Format                      : MPEG Audio
Format version              : Version 1
Format profile              : Layer 3
Codec ID                    : 55
Codec ID/Hint               : MP3
Duration                    : 1 h 11 min
Bit rate mode               : Constant
Bit rate                    : 128 kb/s
Channel(s)                  : 2 channels
Sampling rate               : 48.0 kHz
Compression mode            : Lossy
Stream size                 : 65.2 MiB (9%)
Alignment                   : Aligned on interleaves
Interleave, duration        : 40  ms (1.00 video frame)
Interleave, preload duratio : 504  ms
Writing library             : LAME3.99r
Encoding settings           : -m s -V 4 -q 2 -lowpass 17 -b 128



Скриншоты:
[+] Всего файлов в раздаче - 1:
God.Svinji.2018.XviD.745Mb.WEB-DLRip.GeneralFilm.avi743.56 MB

Текущая раздача:
ДатаКомментарии    РазмерПиры
2018-12-27 U Год свиньи (2018) WEBRip от GeneralFilm 743.56 MB ↑ 236 ↓ 68

Показать еще раздачи по запросу свиньи:
2018-12-28 U Год свиньи (2018) WEBRip от Generalfilm | КПК 270.80 MB ↑ 65 ↓ 12
2018-12-27 U Год свиньи (2018) WEBRip-AVC от Files-x 912.77 MB ↑ 168 ↓ 49
2018-12-27 U Год свиньи (2018) WEBRip от Dalemake 1.07 GB ↑ 160 ↓ 34
2018-12-27 U Год свиньи (2018) WEBRip от Files-x 1К747.03 MB ↑ 117 ↓ 46
2018-12-27 U Год свиньи (2018) WEBRip-AVC от Files-x 1.37 GB ↑ 261 ↓ 72
2018-12-27 U Год свиньи (2018) WEBRip 1080p 1К2.58 GB ↑ 772 ↓ 372
2018-12-27 U Год свиньи (2018) WEBRip 720p от ExKinoRay 1.39 GB ↑ 383 ↓ 225

Отзывы
Зарегистрируйтесь чтобы добавить комментарий.
Обратная связь
Copyleft ©