↑↓Torrent.by
Поиск
Логин: Регистрация
Пароль: Восстановить пароль
Загрузка...

СашаТаня (Новогодняя серия) (2018) WEBRip от GeneralFilm

Скачать sashatanya-novogodnyaya-seriya-2018-webrip-ot-generalfilm.torrent
U Магнитная ссылка Размер: 281.74 MB Раздают: 156 Качают: 28 Добавлен: 2018-12-27 18:37:28
СашаТаня (Новогодняя серия) (2018) WEBRip от GeneralFilm

Оригинальное название: СашаТаня
Год выпуска: 2018
Жанр:  Комедия
Выпущено: Россия, "Comedy Club Production"
Режиссер: Александр Потапов
В ролях: Андрей Гайдулян, Валентина Рубцова, Алексей Климушкин, Елена Бирюкова, Татьяна Орлова, Андрей Лебедев, Ксения Хаирова, Олег Новиков, Сергей Рудзевич, Сергей Мурзин, Андрей Свиридов, Павел Кассинский, Виталий Гогунский, Арарат Кещян, Ёлка, Алексей Гаврилов, Лариса Баранова, Алина Кизиярова-Ланина, Екатерина Шукшина, Владимир Епифанцев, Светлана Тимофеева-Летуновская

О фильме: Сериал про молодую семью Сергеевых. После окончания института Саша и Таня вместе со своим маленьким сыном Алёшкой решили пожить самостоятельно и сняли квартиру в Южном Бутово. Райончик конечно не из лучших, но зато и цены на жилье тут доступные, ведь Саша не собирается пользоваться миллиардами своего папы. Но Сильвестр Андреевич не собирается так просто отставать от молодых и тем более от своего внука. Поэтому он поселился по соседству, только в просторной и роскошной квартире.

Качество: WEBRip
Видео: XviD build 73, 720x400 (16:9), 25.000 fps, 1552 Kbps (0.215 bit/pixel)
Аудио: 48.0 kHz, AC3, 2/0 ch, 192 kbps
Продолжительность: 00:22:28
Перевод: Не требуется
Cубтитры: нет

Релиз:
[+] MediaInfo

General
Complete name               : D:RazdachiSashaTanya.Novogodnjaja.2018.XviD.WEB-DLRip.GeneralFilm.avi
Format                      : AVI
Format/Info                 : Audio Video Interleave
File size                   : 282 MiB
Duration                    : 22 min 28 s
Overall bit rate            : 1 753 kb/s
Writing application         : VirtualDubMod 1.5.10.3 | www.virtualdub-fr.org || (build 2550/release)
Writing library             : VirtualDubMod build 2550/release

Video
ID                          : 0
Format                      : MPEG-4 Visual
Format profile              : Advanced Simple@L5
Format settings, BVOP       : 1
Format settings, QPel       : No
Format settings, GMC        : No warppoints
Format settings, Matrix     : Custom
Codec ID                    : XVID
Codec ID/Hint               : XviD
Duration                    : 22 min 28 s
Bit rate                    : 1 552 kb/s
Width                       : 720 pixels
Height                      : 400 pixels
Display aspect ratio        : 16:9
Frame rate                  : 25.000 FPS
Color space                 : YUV
Chroma subsampling          : 4:2:0
Bit depth                   : 8 bits
Scan type                   : Progressive
Compression mode            : Lossy
Bits/(Pixel*Frame)          : 0.215
Stream size                 : 249 MiB (88%)
Writing library             : XviD 73

Audio
ID                          : 1
Format                      : AC-3
Format/Info                 : Audio Coding 3
Format settings, Endianness : Big
Codec ID                    : 2000
Duration                    : 22 min 28 s
Bit rate mode               : Constant
Bit rate                    : 192 kb/s
Channel(s)                  : 2 channels
Channel positions           : Front: L R
Sampling rate               : 48.0 kHz
Frame rate                  : 31.250 FPS (1536 SPF)
Bit depth                   : 16 bits
Compression mode            : Lossy
Stream size                 : 30.9 MiB (11%)
Alignment                   : Split accross interleaves
Interleave, duration        : 40  ms (1.00 video frame)
Interleave, preload duratio : 500  ms
Service kind                : Complete Main



Скриншоты:
[+] Всего файлов в раздаче - 1:
SashaTanya.Novogodnjaja.2018.XviD.WEB-DLRip.GeneralFilm.avi281.74 MB

Текущая раздача:
ДатаКомментарии    РазмерПиры
2018-12-27 U СашаТаня (Новогодняя серия) (2018) WEBRip от GeneralFilm 281.74 MB ↑ 156 ↓ 28

Показать еще раздачи по запросу сашатаня:
2018-12-26 U СашаТаня (Новогодняя серия) (2018) WEBRip-AVC от Files-x 288.15 MB ↑ 194 ↓ 44
2018-12-26 U СашаТаня [Новогодняя серия] (2018) WEBRip 1080p 834.63 MB ↑ 402 ↓ 90
2018-09-10 U СашаТаня [07х01-10] (2018) HDTVRip 720p от MediaClub 6.77 GB ↑ 65 ↓ 101
2018-09-10 U СашаТаня [07х01-10] (2018) WEBRip от Files-x 1К3.30 GB ↑ 70 ↓ 105
2018-09-04 U СашаТаня [07х01-06 из 16] (2018) HDTVRip-AVC от Files-x 2.11 GB ↑ 85 ↓ 29
2018-09-02 U СашаТаня [07х01-06] (2018) SATRip 1.78 GB ↑ 91 ↓ 80
2018-05-31 U СашаТаня [S06 + Фильм о фильме] (2018) HDTVRip от GeneralFilm 3.26 GB ↑ 69 ↓ 109

Отзывы
Зарегистрируйтесь чтобы добавить комментарий.
Обратная связь
Copyleft ©