↑↓Torrent.by
Поиск
Логин: Регистрация
Пароль: Восстановить пароль
Загрузка...

Роковые яйца (1995) DVDRip-AVC

Скачать rokovye-yayca-1995-dvdrip-avc.torrent
U Магнитная ссылка Размер: 2.58 GB Раздают: 100 Качают: 31 Добавлен: 2018-12-28 04:46:35
Роковые яйца (1995) DVDRip-AVC

Название: Роковые яйца
Год выхода: 1995
Жанр:  фантастика, комедия
Режиссер: Сергей Ломкин
Сценарий: Михаил Булгаков, Владимир Гуркин, Сергей Ломкин
Продюсер: Галина Белинская
Оператор: Владимир Кононенко
Композитор: Владимир Дашкевич

В ролях: Олег Янковский, Андрей Толубеев, Нина Усатова, Ирина Сенотова, Татьяна Кравченко, Амалия Мордвинова, Гарик Сукачев, Александр Марин, Виктор Павлов, Семен Фарада...

О фильме:
Помесь произведений Михаила Булгакова "Роковые яйца" и "Мастер и Маргарита". На землю спустился Воланд (Михаил Козаков) со свитой, чтобы совершить задуманное злодеяние. Для этого он даёт в человеческие руки, профессору Персикову (Олег Янковский) красный луч, луч жизни, который многократно усиливает и ускоряет рост гадов в лабораторных условиях. Но, как это часто случается, открытие учёного будет использовано не во благо, так как в СССР в 1928 году передохли все куры и вот бывший сотрудник ГПУ Рокк конфискует у Персикова аппараты для ускорения роста и отправляет в экспериментальный колхоз для ускоренного вывода поголовья кур. Меж тем Воланд посылает кота-бегемота (Роман Мадянов) и он по просьбе Рокка выдаёт ему со склада яйца анаконд, крокодилов и страусов…

Страна: Россия, Чехия
Студия: "Канонъ", A&М Холдинг
Продолжительность: 01:57:27
Субтитры: Нет

Файл
Кодек: x264
Формат: MKV
Качество: DVDRip-AVC
Видео: 716@764x428 (16:9), 25 fps, High@L4.1, ~2411 kbps, 0.315 bit/pixel
Аудио №1: AC3, 6 ch, ~448 kbps
Аудио №2: AC3, 1 ch, ~224 kbps

***Релиз от: -=DoMiNo=-


[+] M/I
General
Unique ID                   : 132720770073457349313248572385664737409 (0x63D9172D25FFFE7984467433C6E8A081)
Complete name               : Роковые яйца.(1995).DVDRIP-AVC.F.S.[-=DoMiNo=-].mkv
Format                      : Matroska
Format version              : Version 4
File size                   : 2.58 GiB
Duration                    : 1 h 57 min
Overall bit rate            : 3 146 kb/s
Movie name                  : Роковые яйца
Deion                 : На землю спустился дьявол, чтобы совершить задуманное злодеяние. Для этого дьяволу недостаточно использовать только человеческие пороки, и он передает в руки талантливого ученого чудодейственное открытие, которое, как это уже было не раз, будет использовано не во благо. Механизм дьявольского замысла срабатывает. Спасти Россию может только вмешательство Всевышнего.
Attachments                 : poster.jpg
ACTORS                      : Andrei Tolubeyev, Nina Usatova, Oleg Yankovskiy, Irina Senotova, Tatyana Kravchenko, Amaliya Mordvinova, Viktor Pavlov, Garik Sukachyov, Alexandre Marine, Semyon Farada, Sergey Garmash, Aleksei Zharkov, Aleksandr Pashutin, Mikhail Kozakov, Anatoliy Obukhov
COUNTRY                     : Russia
DATE                        : 1995-05-05
DIRECTOR                    : Sergei Lomkin
GENRE                       : комедия, фантастика
ITUNEXTC                    : ru-movie|12+|200|
RATING                      : 5.21

Video
ID                          : 1
Format                      : AVC
Format/Info                 : Advanced Video Codec
Format profile              : High@L4.1
Format settings             : CABAC / 14 Ref Frames
Format settings, CABAC      : Yes
Format settings, ReFrames   : 14 frames
Codec ID                    : V_MPEG4/ISO/AVC
Duration                    : 1 h 57 min
Bit rate                    : 2 411 kb/s
Width                       : 716 pixels
Height                      : 428 pixels
Display aspect ratio        : 16:9
Frame rate mode             : Constant
Frame rate                  : 25.000 FPS
Color space                 : YUV
Chroma subsampling          : 4:2:0
Bit depth                   : 8 bits
Scan type                   : Progressive
Bits/(Pixel*Frame)          : 0.315
Stream size                 : 1.98 GiB (77%)
Title                       : RIP_BY_-=DoMiNo=-
Writing library             : x264 core 157 r2935M 545de2f
Encoding settings           : cabac=1 / ref=14 / deblock=1:-1:-1 / analyse=0x3:0x133 / me=umh / subme=11 / psy=1 / psy_rd=1.00:0.00 / mixed_ref=1 / me_range=48 / chroma_me=1 / trellis=2 / 8x8dct=1 / cqm=0 / deadzone=21,11 / fast_pskip=1 / chroma_qp_offset=-2 / threads=6 / lookahead_threads=1 / sliced_threads=0 / nr=0 / decimate=1 / interlaced=0 / bluray_compat=0 / constrained_intra=0 / bframes=16 / b_pyramid=2 / b_adapt=2 / b_bias=0 / direct=1 / weightb=1 / open_gop=0 / weightp=2 / keyint=250 / keyint_min=25 / scenecut=40 / intra_refresh=0 / rc=crf / mbtree=0 / crf=18.0 / qcomp=0.80 / qpmin=0 / qpmax=69 / qpstep=4 / ip_ratio=1.40 / pb_ratio=1.30 / aq=1:0.80
Default                     : Yes
Forced                      : No
Color range                 : Limited

Audio #1
ID                          : 2
Format                      : AC-3
Format/Info                 : Audio Coding 3
Commercial name             : Dolby Digital
Codec ID                    : A_AC3
Duration                    : 1 h 57 min
Bit rate mode               : Constant
Bit rate                    : 448 kb/s
Channel(s)                  : 6 channels
Channel layout              : L R C LFE Ls Rs
Sampling rate               : 48.0 kHz
Frame rate                  : 31.250 FPS (1536 SPF)
Bit depth                   : 16 bits
Compression mode            : Lossy
Stream size                 : 376 MiB (14%)
Language                    : Russian
Service kind                : Complete Main
Default                     : Yes
Forced                      : No

Audio #2
ID                          : 3
Format                      : AC-3
Format/Info                 : Audio Coding 3
Commercial name             : Dolby Digital
Codec ID                    : A_AC3
Duration                    : 1 h 57 min
Bit rate mode               : Constant
Bit rate                    : 224 kb/s
Channel(s)                  : 1 channel
Channel layout              : C
Sampling rate               : 48.0 kHz
Frame rate                  : 31.250 FPS (1536 SPF)
Bit depth                   : 16 bits
Compression mode            : Lossy
Stream size                 : 188 MiB (7%)
Language                    : Russian
Service kind                : Complete Main
Default                     : No
Forced                      : No

Menu
00:00:00.000                : :Глава 1
00:05:17.000                : :Глава 2
00:15:11.040                : :Глава 3
00:19:25.480                : :Глава 4
00:27:50.760                : :Глава 5
00:37:06.400                : :Глава 6
00:43:58.920                : :Глава 7
00:48:27.360                : :Глава 8
00:56:45.800                : :Глава 9
01:03:46.080                : :Глава 10
01:10:50.200                : :Глава 11
01:23:32.599                : :Глава 12
01:31:19.584                : :Глава 13
01:33:29.904                : :Глава 14
01:38:10.064                : :Глава 15
01:44:37.224                : :Глава 16
01:53:39.984                : :Глава 17



Скриншоты:
[+] Всего файлов в раздаче - 1:
Роковые яйца.(1995).DVDRIP-AVC.F.S.[-=DoMiNo=-].mkv2.58 GB

Текущая раздача:
ДатаКомментарии    РазмерПиры
2018-12-28 U Роковые яйца (1995) DVDRip-AVC 1 К 2.58 GB ↑ 100 ↓ 31

Похожие раздачи по запросу - роковые:
2014-05-01 U Роковые числа: Нумерология (2014) HDTVRip от GeneralFilm 524.21 MB ↑ 204 ↓ 49
2013-11-01 U Роковые ошибки Тодда Маргарета / The Increasingly Poor Decisions of Todd Margaret / Сезон: 2 / Серии: 4-6 (6) (2012) HDTVRip 1.75 GB ↑ 18 ↓ 3
2013-11-01 U Роковые ошибки Тодда Маргарета / The Increasingly Poor Decisions of Todd Margaret / Сезон: 2 / Серии: 1-3 (6) (2012) HDTVRip 10К633.55 MB ↑ 30 ↓ 65534
2013-11-01 U Роковые ошибки Тодда Маргарета / The Increasingly Poor Decisions of Todd Margaret / Сезон: 1 / Серии: 1-6 (6) (2010) HDTVRip 20К1.27 GB ↑ 186 ↓ 0

Отзывы
muzicant
По Булгакову... прошло незамеченным - смотрите обязательно, хорошее кино!

Зарегистрируйтесь чтобы добавить комментарий.
Обратная связь
Copyleft ©