↑↓Torrent.by
Поиск
Логин: Регистрация
Пароль: Восстановить пароль
Загрузка...

Лютый [S02] (2018) WEBRip от GeneralFilm

Скачать lyutyy-s02-2018-webrip-ot-generalfilm.torrent
U Магнитная ссылка Размер: 2.18 GB Раздают: 196 Качают: 131 Добавлен: 2018-12-28 18:01:31
Лютый [S02] (2018) WEBRip от GeneralFilm

Год выпуска: 2018
Жанр:  Боевик, криминал
Выпущено: Россия, Кинокомпания DT Production
Режиссер: Станислав Мареев
В ролях: Владимир Епифанцев, Ирина Апексимова, Елена Панова, Михаил Трухин, Дарья Мельникова

О фильме: Главного героя, полицейского Максима Лютова, долго считали убитым. Когда он возвращается к работе в полиции и становится новым начальником убойного отдела, у многих коллег это вызывает шок. Старые знакомые смотрят на него как на ожившего покойника. Новые сотрудники отделения с трудом воспринимают его своеобразные манеры и внешний вид. Лютов груб, странно выглядит, странно шутит, и методы работы у него странные.

Качество: WEBRip
Видео: XviD build 73, 720x400 (16:9), 25.000 fps, ~ 1320 Kbps (~ 0.183 bit/pixel)
Аудио: 48.0 kHz, AC3, 2/0 ch, 192 kbps
Продолжительность: 4 х ~ 00:45:00
Перевод: Не требуется
Cубтитры: нет

Релиз:


[+] MediaInfo

General
Complete name               : D:RazdachiLjutyj.s02.2018.XviD.WEBRip.GeneralFilmLjutyj.s02.e03.avi
Format                      : AVI
Format/Info                 : Audio Video Interleave
File size                   : 557 MiB
Duration                    : 51 min 10 s
Overall bit rate            : 1 523 kb/s
Writing application         : VirtualDubMod 1.5.10.3 | www.virtualdub-fr.org || (build 2550/release)
Writing library             : VirtualDubMod build 2550/release

Video
ID                          : 0
Format                      : MPEG-4 Visual
Format profile              : Advanced Simple@L5
Format settings, BVOP       : 1
Format settings, QPel       : No
Format settings, GMC        : No warppoints
Format settings, Matrix     : Custom
Codec ID                    : XVID
Codec ID/Hint               : XviD
Duration                    : 51 min 10 s
Bit rate                    : 1 321 kb/s
Width                       : 720 pixels
Height                      : 400 pixels
Display aspect ratio        : 16:9
Frame rate                  : 25.000 FPS
Color space                 : YUV
Chroma subsampling          : 4:2:0
Bit depth                   : 8 bits
Scan type                   : Progressive
Compression mode            : Lossy
Bits/(Pixel*Frame)          : 0.183
Stream size                 : 484 MiB (87%)
Writing library             : XviD 73

Audio
ID                          : 1
Format                      : AC-3
Format/Info                 : Audio Coding 3
Format settings, Endianness : Big
Codec ID                    : 2000
Duration                    : 51 min 10 s
Bit rate mode               : Constant
Bit rate                    : 192 kb/s
Channel(s)                  : 2 channels
Channel positions           : Front: L R
Sampling rate               : 48.0 kHz
Frame rate                  : 31.250 FPS (1536 SPF)
Bit depth                   : 16 bits
Compression mode            : Lossy
Stream size                 : 70.3 MiB (13%)
Alignment                   : Split accross interleaves
Interleave, duration        : 40  ms (1.00 video frame)
Interleave, preload duratio : 500  ms
Service kind                : Complete Main



Скриншоты:
[+] Всего файлов в раздаче - 4:
Ljutyj.s02.e01.avi557.53 MB
Ljutyj.s02.e02.avi557.42 MB
Ljutyj.s02.e03.avi557.38 MB
Ljutyj.s02.e04.avi557.17 MB

Текущая раздача:
ДатаКомментарии    РазмерПиры
2018-12-28 U Лютый [S02] (2018) WEBRip от GeneralFilm 2.18 GB ↑ 196 ↓ 131

Показать еще раздачи по запросу лютый:
2018-12-28 U Лютый [S02] (2018) WEBRip 1080p 4.37 GB ↑ 92 ↓ 54
2018-12-28 U Лютый [S02] (2018) WEBRip от Files-x 2.61 GB ↑ 103 ↓ 81
2018-12-28 U Лютый [S02] (2018) WEBRip-AVC от Files-x 2.60 GB ↑ 173 ↓ 71
2018-12-21 U Лютый [02х01-03 из 04] (2018) WEBRip-AVC от Files-x 1К1.96 GB ↑ 91 ↓ 49
2018-12-21 U Лютый [02x01-03 из 04] (2018) WEBRip от GeneralFilm 1.63 GB ↑ 86 ↓ 111
2018-12-14 U Лютый [02х01-02 из 04] (2018) WEBRip 1080p 2.24 GB ↑ 67 ↓ 26
2018-12-14 U Лютый [02х01-02 из 04] (2018) WEBRip-AVC от Files-x 1.31 GB ↑ 103 ↓ 32

Отзывы
Зарегистрируйтесь чтобы добавить комментарий.
Обратная связь
Copyleft ©