↑↓Torrent.by
Поиск
Логин: Регистрация
Пароль: Восстановить пароль
Загрузка...

Ничего хорошего в отеле «Эль рояль» / Bad Times at the El Royale (2018) BDRip-AVC от OlLanDGroup | D

Скачать nichego-horoshego-v-otele-el-royal-bad-times-at-the-royale-2018-bdrip-avc-ot-ollandgroup-d.torrent
U Магнитная ссылка Размер: 2.64 GB Раздают: 161 Качают: 111 Добавлен: 2018-12-29 08:42:00
Ничего хорошего в отеле «Эль рояль» / Bad Times at the El Royale (2018) BDRip-AVC от OlLanDGroup | D

Ничего хорошего в отеле «Эль рояль» / Bad Times at the El Royale
«All Roads Lead Here»

Год выпуска: 2018
Страна: США
Производство: 20th Century Fox Film Corporation
Жанр:  Триллер, детектив

Режиссёр: Дрю Годдард
В ролях: Крис Хемсворт, Дакота Джонсон, Джефф Бриджес, Синтия Эриво, Джон Хэмм, Кэйли Спэни, Льюис Пуллман, Ксавье Долан, Ник Офферман, Ши Уигхэм, Кэтрин Изабель, Мэнни Хасинто, Марк О`Брайэн, Чарльз Халфорд, Джим О`Хейр, Джерри Нэйрн, Альвина Аугуст, Джонатан Уайтселл, Софиа Локлин Херт

Перевод: Дублированный |
Субтитры: Английские (полные, SDH)
Реклама: Отсутствует

Описание: 1969 год. Группа разношерстных личностей останавливается на ночь в когда-то популярном отеле «Эль Рояль», расположенном на границе штатов Невада и Калифорния. В здании отеля собрались неприветливый священник, певица Дарлин, энергичный продавец пылесосов и подозрительная девушка с Юга. Вместе с ними ночь в отеле проводит молодой консьерж. Каждому из них есть что скрывать, и у каждого из них будет шанс искупить прошлые грехи. Но ситуация только осложняется, когда в «Эль Рояль» появляется зловещий, но обаятельный лидер культа, желающий получить свое.

Качество: BDRip-AVC | BDRemux | Bad.Times.at.the.El.Royale.2018.REMUX.1080p.BluRay.AVC.DTS-HD.MA.7.1-iFT
Продолжительность: 02:21:37

Формат: MKV
Видео кодек: MPEG-4 AVC
Аудио кодек: AC3
Видео: 1024x428 (2.40:1), 23,976 fps, x264 ~1 773 kbps avg, 0.169 bit/pixel
Аудио #1: 48 kHz, AC3 Dolby Digital, 3/2 (L,C,R,l,r) + LFE ch, ~448.00 kbps avg | RUS
Аудио #2: 48 kHz, AC3 Dolby Digital, 3/2 (L,C,R,l,r) + LFE ch, ~448.00 kbps avg | ENG

Дата премьеры (мир): 27 сентября 2018
Дата премьеры (РФ): 11 октября 2018, «Двадцатый Век Фокс СНГ»
Цифровой релиз: 28 декабря 2018, «Двадцатый Век Фокс СНГ»

Релиз: Rip by:


[+] MediaInfo

Общее
Уникальный идентификатор                 : 290521624446964661171171457536080310376 (0xDA906DFA5C34E370A7645905930D7068)
Полное имя                               : F:OlLanDGroupBad.Times.at.the.El.Royale.2018.BDRip(AVC).OlLanDGroup.mkv
Формат                                   : Matroska
Версия формата                           : Version 4 / Version 2
Размер файла                             : 2,64 Гбайт
Продолжительность                        : 2 ч. 21 м.
Общий поток                              : 2671 Кбит/сек
Название фильма                          : Bad Times at the El Royale (2018)   #TorpedoUK#
Дата кодирования                         : UTC 2018-12-29 05:23:35
Программа кодирования                    : mkvmerge v29.0.0 ('Like It Or Not') 64-bit
Библиотека кодирования                   : libebml v1.3.6 + libmatroska v1.4.9

Видео
Идентификатор                            : 1
Формат                                   : AVC
Формат/Информация                        : Advanced Video Codec
Профиль формата                          : High@L4.1
Параметр CABAC формата                   : Да
Параметр ReFrames формата                : 10 кадров
Идентификатор кодека                     : V_MPEG4/ISO/AVC
Продолжительность                        : 2 ч. 21 м.
Битрейт                                  : 1773 Кбит/сек
Ширина                                   : 1024 пикселя
Высота                                   : 428 пикселей
Соотношение сторон                       : 2,40:1
Режим частоты кадров                     : Постоянный
Частота кадров                           : 23,976 (24000/1001) кадра/сек
Цветовое пространство                    : YUV
Субдискретизация насыщенности            : 4:2:0
Битовая глубина                          : 8 бит
Тип развёртки                            : Прогрессивная
Бит/(Пиксели*Кадры)                      : 0.169
Размер потока                            : 1,75 Гбайт (66%)
Библиотека кодирования                   : x264 core 146 r2538 121396c
Настройки программы                      : cabac=1 / ref=10 / deblock=1:-3:-3 / analyse=0x3:0x113 / me=umh / subme=11 / psy=1 / psy_rd=1.00:0.03 / mixed_ref=1 / me_range=48 / chroma_me=1 / trellis=2 / 8x8dct=1 / cqm=0 / deadzone=21,11 / fast_pskip=1 / chroma_qp_offset=-3 / threads=6 / lookahead_threads=1 / sliced_threads=0 / nr=0 / decimate=1 / interlaced=0 / bluray_compat=0 / constrained_intra=0 / bframes=11 / b_pyramid=2 / b_adapt=2 / b_bias=0 / direct=3 / weightb=1 / open_gop=0 / weightp=2 / keyint=240 / keyint_min=23 / scenecut=40 / intra_refresh=0 / rc_lookahead=40 / rc=2pass / mbtree=0 / bitrate=1773 / ratetol=1.0 / qcomp=0.60 / qpmin=0 / qpmax=69 / qpstep=4 / cplxblur=20.0 / qblur=0.5 / vbv_maxrate=50000 / vbv_bufsize=62500 / nal_hrd=none / filler=0 / ip_ratio=1.40 / pb_ratio=1.30 / aq=1:1.00
Язык                                     : English
Default                                  : Да
Forced                                   : Нет

Аудио #1
Идентификатор                            : 2
Формат                                   : AC-3
Формат/Информация                        : Audio Coding 3
Расширение режима                        : CM (complete main)
Параметр Endianness формата              : Big
Идентификатор кодека                     : A_AC3
Продолжительность                        : 2 ч. 21 м.
Вид битрейта                             : Постоянный
Битрейт                                  : 448 Кбит/сек
Каналы                                   : 6 каналов
Расположение каналов                     : Front: L C R, Side: L R, LFE
Частота                                  : 48,0 КГц
Частота кадров                           : 31,250 кадров/сек (1536 spf)
Битовая глубина                          : 16 бит
Метод сжатия                             : С потерями
Размер потока                            : 454 Мбайт (17%)
Заголовок                                : DUB
Язык                                     : Russian
Default                                  : Да
Forced                                   : Нет

Аудио #2
Идентификатор                            : 3
Формат                                   : AC-3
Формат/Информация                        : Audio Coding 3
Расширение режима                        : CM (complete main)
Параметр Endianness формата              : Big
Идентификатор кодека                     : A_AC3
Продолжительность                        : 2 ч. 21 м.
Вид битрейта                             : Постоянный
Битрейт                                  : 448 Кбит/сек
Каналы                                   : 6 каналов
Расположение каналов                     : Front: L C R, Side: L R, LFE
Частота                                  : 48,0 КГц
Частота кадров                           : 31,250 кадров/сек (1536 spf)
Битовая глубина                          : 16 бит
Метод сжатия                             : С потерями
Размер потока                            : 454 Мбайт (17%)
Заголовок                                : [Original]
Язык                                     : English
Default                                  : Нет
Forced                                   : Нет

Текст #1
Идентификатор                            : 4
Формат                                   : UTF-8
Идентификатор кодека                     : S_TEXT/UTF8
Идентификатор кодека/Информация          : UTF-8 Plain Text
Продолжительность                        : 2 ч. 13 м.
Битрейт                                  : 41 бит/сек
Count of elements                        : 1467
Размер потока                            : 40,5 Кбайт (0%)
Заголовок                                : Full
Язык                                     : English
Default                                  : Нет
Forced                                   : Нет

Текст #2
Идентификатор                            : 5
Формат                                   : UTF-8
Идентификатор кодека                     : S_TEXT/UTF8
Идентификатор кодека/Информация          : UTF-8 Plain Text
Продолжительность                        : 2 ч. 18 м.
Битрейт                                  : 45 бит/сек
Count of elements                        : 1711
Размер потока                            : 46,2 Кбайт (0%)
Заголовок                                : SDH
Язык                                     : English
Default                                  : Нет
Forced                                   : Нет

Меню
00:00:00.000                             : en:Chapter 1
00:04:19.592                             : en:Chapter 2
00:19:21.994                             : en:Chapter 3
00:34:32.779                             : en:Chapter 4
00:49:24.711                             : en:Chapter 5
00:51:19.868                             : en:Chapter 6
01:16:01.473                             : en:Chapter 7
01:37:13.369                             : en:Chapter 8
02:03:56.720                             : en:Chapter 9
02:14:09.041                             : en:Chapter 10
02:15:45.428                             : en:Chapter 11



Скриншоты:
[+] Всего файлов в раздаче - 1:
Bad.Times.at.the.El.Royale.2018.BDRip(AVC).OlLanDGroup.mkv2.64 GB

Текущая раздача:
ДатаКомментарии    РазмерПиры
2018-12-29 U Ничего хорошего в отеле «Эль рояль» / Bad Times at the El Royale (2018) BDRip-AVC от OlLanDGroup | D 1 К 2.64 GB ↑ 161 ↓ 111

Показать еще раздачи по запросу ничего:
2019-01-09 U Всё или ничего (2018) WEB-DLRip от Scarabey | iTunes 1.44 GB ↑ 93 ↓ 24
2019-01-08 U Всё или ничего (2018) WEB-DLRip-AVC от Generalfilm | iTunes 1.21 GB ↑ 163 ↓ 30
2019-01-07 U Всё или ничего (2018) WEB-DLRip-AVC от ExKinoRay | iTunes 744.60 MB ↑ 113 ↓ 45
2019-01-06 U Всё или ничего (2018) WEB-DLRip от Generalfilm | КПК | iTunes 336.55 MB ↑ 65 ↓ 30
2019-01-06 U Всё или ничего (2018) WEB-DLRip от GeneralFilm | iTunes 744.69 MB ↑ 159 ↓ 94
2019-01-06 U Всё или ничего (2018) WEB-DLRip от MegaPeer | iTunes 2К1.46 GB ↑ 1020 ↓ 385
2019-01-06 U Всё или ничего (2018) WEB-DL 1080p | iTunes 3.08 GB ↑ 689 ↓ 324

Отзывы
natalia-alex21
Звук лицензия?

Зарегистрируйтесь чтобы добавить комментарий.
Обратная связь
Copyleft ©