↑↓Torrent.by
Поиск
Логин: Регистрация
Пароль: Восстановить пароль
Загрузка...

Садко (2017) WEB-DLRip-AVC | iTunes

Скачать sadko-2017-web-dlrip-avc-itunes.torrent
U Магнитная ссылка Размер: 1.60 GB Раздают: 68 Качают: 18 Добавлен: 2018-12-29 08:42:23
Садко (2017) WEB-DLRip-AVC | iTunes

Название: Садко
Год выхода: 2017
Жанр: мультфильм, комедия, семейный
Режиссер: Максим Волков, Виталий Мухаметзянов
В ролях: Тимур Гарипов, Любовь Аксенова, Екатерина Варнава, Мария Шалаева, Михаил Ефремов, Дмитрий Филимонов, Данис Галиуллин, Руслан Ронич, Анатолий Константинов, Диомид Виноградов

О фильме: Хоть беги, хоть не беги, а от любви нигде не скрыться. Ни в палатах новгородского князя, ни на дне морском. Особенно, если зовут тебя Садко, и ты симпатичный веселый парень. К тому же, на гуслях играть мастак. Вот только за настоящую любовь еще и повоевать придется. Да не с кем-нибудь, а с подводной ведьмой Барракудой. Но любовь все равно победит. Вот увидите!

Страна: Россия / Студия «Муха», Кинокомпания CTB, Анимационная студия Мельница
Продолжительность: 01:17:49
Перевод: не требуется [iTunes]

Файл
Качество: WEB-DLRip-AVC
Формат: MKV
Видео: MPEG-4 AVC/H.264, 2600 Кбит/сек, 1024x428
Звук: AC3, 6 ch, 384 Кбит/сек
Субтитры: нет
Дополнительно: Сохранены оригинальные главы (чаптеры)


[+] MediaInfo:
Общее
Уникальный идентификатор                 : 264668972892459606307245573614360212407 (0xC71D63D8A34569FD3412160878D233B7)
Полное имя                               : F:Диск4. МУЛЬТФИЛЬМЫСадко (2017)Sadk0.2017.mkv
Формат                                   : Matroska
Версия формата                           : Version 4
Размер файла                             : 1,60 Гбайт
Продолжительность                        : 1 ч. 17 м.
Общий поток                              : 2938 Кбит/сек
Программа кодирования                    : XviD4PSP 7.0.461 DAILY
Библиотека кодирования                   : Lavf57.71.100
Авторское право                          : [#ZsU®]
ErrorDetectionType                       : Per level 1
Attachments                              : poster.jpg
ENCODING_INFO                            : MATROSKA,WEBM > MKV Пользовательский / H264 > X264 ABR 2600kbps HQ / AC3 > AC3 CBR 384kbps
Язык                                     : und

Видео
Идентификатор                            : 1
Формат                                   : AVC
Формат/Информация                        : Advanced Video Codec
Профиль формата                          : High@L4.1
Настройки формата                        : CABAC / 11 Ref Frames
Параметр CABAC формата                   : Да
Параметр RefFrames формата               : 11 кадров
Идентификатор кодека                     : V_MPEG4/ISO/AVC
Продолжительность                        : 1 ч. 17 м.
Битрейт                                  : 2600 Кбит/сек
Ширина                                   : 1024 пикселя
Высота                                   : 428 пикселей
Соотношение сторон                       : 2,40:1
Режим частоты кадров                     : Постоянный
Частота кадров                           : 23,976 (24000/1001) кадра/сек
Цветовое пространство                    : YUV
Субдискретизация насыщенности            : 4:2:0
Битовая глубина                          : 8 бит
Тип развёртки                            : Прогрессивная
Бит/(Пиксели*Кадры)                      : 0.247
Размер потока                            : 1,36 Гбайт (85%)
Библиотека кодирования                   : x264 core 157 r2935M 545de2f
Настройки программы                      : cabac=1 / ref=12 / deblock=1:-3:-3 / analyse=0x3:0x133 / me=umh / subme=11 / psy=1 / psy_rd=1.00:0.20 / mixed_ref=1 / me_range=32 / chroma_me=1 / trellis=2 / 8x8dct=1 / cqm=0 / deadzone=21,11 / fast_pskip=1 / chroma_qp_offset=-3 / threads=13 / lookahead_threads=1 / sliced_threads=0 / nr=0 / decimate=1 / interlaced=0 / bluray_compat=0 / constrained_intra=0 / bframes=12 / b_pyramid=1 / b_adapt=1 / b_bias=10 / direct=1 / weightb=1 / open_gop=0 / weightp=1 / keyint=240 / keyint_min=24 / scenecut=40 / intra_refresh=0 / rc_lookahead=40 / rc=abr / mbtree=1 / bitrate=2600 / ratetol=1.0 / qcomp=0.60 / qpmin=0 / qpmax=69 / qpstep=4 / ip_ratio=1.40 / aq=1:1.00
Язык                                     : English
Default                                  : Да
Forced                                   : Нет
Цветовой диапазон                        : Limited
Основные цвета                           : BT.709
Характеристики трансфера                 : BT.709
Коэффициенты матрицы                     : BT.709

Аудио
Идентификатор                            : 2
Формат                                   : AC-3
Формат/Информация                        : Audio Coding 3
Коммерческое название                    : Dolby Digital
Идентификатор кодека                     : A_AC3
Продолжительность                        : 1 ч. 17 м.
Вид битрейта                             : Постоянный
Битрейт                                  : 384 Кбит/сек
Каналы                                   : 6 каналов
Channel layout                           : L R C LFE Ls Rs
Частота                                  : 48,0 КГц
Частота кадров                           : 31,250 кадров/сек (1536 SPF)
Битовая глубина                          : 16 бит
Метод сжатия                             : С потерями
Размер потока                            : 214 Мбайт (13%)
Заголовок                                : iTunes
Язык                                     : Russian
Default                                  : Да
Forced                                   : Нет

Меню
00:00:00.000                             : :Глава 1
00:03:48.120                             : :Глава 2
00:09:16.920                             : :Глава 3
00:15:20.040                             : :Глава 4
00:21:35.040                             : :Глава 5
00:27:05.560                             : :Глава 6
00:32:45.280                             : :Глава 7
00:38:49.280                             : :Глава 8
00:45:06.080                             : :Глава 9
00:51:28.040                             : :Глава 10
00:56:01.440                             : :Глава 11
01:01:33.000                             : :Глава 12
01:07:03.440                             : :Глава 13



Скриншоты:
[+] Всего файлов в раздаче - 1:
Sadk0.2017.mkv1.60 GB

Текущая раздача:
ДатаКомментарии    РазмерПиры
2018-12-29 U Садко (2017) WEB-DLRip-AVC | iTunes 1.60 GB ↑ 68 ↓ 18

Похожие раздачи по запросу - садко:
2018-08-08 U Садко (2017) WEB-DL 720p | iTunes 2.47 GB ↑ 45 ↓ 14
2018-07-16 U Садко (2017) WEB-DLRip-AVC от OlLanDGroup | iTunes 1К745.70 MB ↑ 227 ↓ 23
2018-07-13 U Садко (2017) WEB-DLRip от GeneralFilm | iTunes 1.09 GB ↑ 384 ↓ 25
2018-07-11 U Садко (2017) WEB-DLRip от GeneralFilm | iTunes 744.08 MB ↑ 265 ↓ 59
2018-07-11 U Садко (2017) WEB-DL 1080p | iTunes 2.73 GB ↑ 918 ↓ 230
2015-12-26 U Садко (1952) DVDRip-AVC от New-Team 1.46 GB ↑ 93 ↓ 18

Отзывы
Зарегистрируйтесь чтобы добавить комментарий.
Обратная связь
Copyleft ©