↑↓Torrent.by
Поиск
Логин: Регистрация
Пароль: Восстановить пароль
Загрузка...

Ничего хорошего в отеле «Эль рояль» / Bad Times at the El Royale (2018) BDRemux 1080p | D

Скачать nichego-horoshego-v-otele-el-royal-bad-times-at-the-royale-2018-bdremux-1080p-d.torrent
U Магнитная ссылка Размер: 31.07 GB Раздают: 231 Качают: 323 Добавлен: 2018-12-29 20:21:56
Ничего хорошего в отеле «Эль рояль» / Bad Times at the El Royale (2018) BDRemux 1080p | D

Название: Ничего хорошего в отеле «Эль рояль»
Оригинальное название: Bad Times at the El Royale
Год выпуска: 2018
Жанр:  Триллер, детектив
Режиссер: Дрю Годдард
В ролях: Крис Хемсворт, Дакота Джонсон, Джефф Бриджес, Синтия Эриво, Джон Хэмм, Кэйли Спэни, Льюис Пуллман, Ксавье Долан, Ник Офферман, Шей Уигэм, Кэтрин Изабель, Мэнни Хасинто, Марк О`Брайэн, Чарльз Халфорд, Джим О`Хейр, Джерри Нэйрн, Альвина Аугуст, Джонатан Уайтселл, Софиа Локлин Херт

О фильме:
1969 год. Группа разношерстных личностей останавливается на ночь в когда-то популярном отеле «Эль Рояль», расположенном на границе штатов Невада и Калифорния. В здании отеля собрались неприветливый священник, певица Дарлин, энергичный продавец пылесосов и подозрительная девушка с Юга. Вместе с ними ночь в отеле проводит молодой консьерж. Каждому из них есть что скрывать, и у каждого из них будет шанс искупить прошлые грехи. Но ситуация только осложняется, когда в «Эль Рояль» появляется зловещий, но обаятельный лидер культа, желающий получить свое.

Страна: США
Студия: 20th Century Fox Film Corporation
Продолжительность: 02:21:37
Перевод: Дублированный
Субтитры: Английские

Файл
Формат: mkv
Качество: BDRemux 1080p
Видео: AVC/H.264, 1920x1080, ~26,2 Mbps
Аудио #1: AC3, 6 ch, 448 Kbps | Русский (DUB)
Аудио #2: DTS-HD MA, 8 ch, 4778 Kbps | Английский


[+] M/I
Общее
Уникальный идентификатор                 : 65219885802385092712691675400378890005 (0x3110E4A2708F69F21A1A997D6C15B715)
Полное имя                               : Bad.Times.at.the.El.Royale.2018.BDREMUX.mkv
Формат                                   : Matroska
Версия формата                           : Version 4
Размер файла                             : 31,1 Гбайт
Продолжительность                        : 2 ч. 21 м.
Режим общего битрейта                    : Переменный
Общий поток                              : 31,4 Мбит/сек
Название фильма                          : Bad Times at the El Royale (2018) ОТ werecut
Дата кодирования                         : UTC 2018-12-28 22:43:07
Программа кодирования                    : mkvmerge v29.0.0 ('Like It Or Not') 64-bit
Библиотека кодирования                   : libebml v1.3.6 + libmatroska v1.4.9

Видео
Идентификатор                            : 1
Формат                                   : AVC
Формат/Информация                        : Advanced Video Codec
Профиль формата                          : High@L4.1
Настройки формата                        : CABAC / 4 Ref Frames
Параметр CABAC формата                   : Да
Параметр RefFrames формата               : 4 кадра
Идентификатор кодека                     : V_MPEG4/ISO/AVC
Продолжительность                        : 2 ч. 21 м.
Вид битрейта                             : Переменный
Битрейт                                  : 26,2 Мбит/сек
Максимальный битрейт                     : 32,5 Мбит/сек
Ширина                                   : 1920 пикселей
Высота                                   : 1080 пикселей
Соотношение сторон                       : 16:9
Режим частоты кадров                     : Постоянный
Частота кадров                           : 23,976 (24000/1001) кадра/сек
Цветовое пространство                    : YUV
Субдискретизация насыщенности            : 4:2:0
Битовая глубина                          : 8 бит
Тип развёртки                            : Прогрессивная
Бит/(Пиксели*Кадры)                      : 0.527
Размер потока                            : 25,9 Гбайт (83%)
Язык                                     : English
Default                                  : Да
Forced                                   : Нет

Аудио #1
Идентификатор                            : 2
Формат                                   : AC-3
Формат/Информация                        : Audio Coding 3
Коммерческое название                    : Dolby Digital
Идентификатор кодека                     : A_AC3
Продолжительность                        : 2 ч. 21 м.
Вид битрейта                             : Постоянный
Битрейт                                  : 448 Кбит/сек
Каналы                                   : 6 каналов
Channel layout                           : L R C LFE Ls Rs
Частота                                  : 48,0 КГц
Частота кадров                           : 31,250 кадров/сек (1536 SPF)
Битовая глубина                          : 16 бит
Метод сжатия                             : С потерями
Размер потока                            : 454 Мбайт (1%)
Заголовок                                : Dub
Язык                                     : Russian
ServiceKind                      : Complete Main
Default                                  : Да
Forced                                   : Да

Аудио #2
Идентификатор                            : 3
Формат                                   : DTS ES XLL
Формат/Информация                        : Digital Theater Systems
Коммерческое название                    : DTS-HD Master Audio
Идентификатор кодека                     : A_DTS
Продолжительность                        : 2 ч. 21 м.
Вид битрейта                             : Переменный
Битрейт                                  : 4778 Кбит/сек
Каналы                                   : 8 каналов
Channel layout                           : C L R Ls Rs LFE Lb Rb
Частота                                  : 48,0 КГц
Частота кадров                           : 93,750 кадра/сек (512 SPF)
Битовая глубина                          : 24 бит
Метод сжатия                             : Без потерь
Размер потока                            : 4,73 Гбайт (15%)
Язык                                     : English
Default                                  : Нет
Forced                                   : Нет

Текст
Идентификатор                            : 4
Формат                                   : UTF-8
Идентификатор кодека                     : S_TEXT/UTF8
Идентификатор кодека/Информация          : UTF-8 Plain Text
Продолжительность                        : 2 ч. 13 м.
Битрейт                                  : 41 бит/сек
ElementCount                             : 1467
Размер потока                            : 40,5 Кбайт (0%)
Заголовок                                : Full
Язык                                     : English
Default                                  : Нет
Forced                                   : Нет

Меню
00:00:00.000                             : en:Chapter 1
00:04:19.592                             : en:Chapter 2
00:19:21.994                             : en:Chapter 3
00:34:32.779                             : en:Chapter 4
00:49:24.711                             : en:Chapter 5
00:51:19.868                             : en:Chapter 6
01:16:01.473                             : en:Chapter 7
01:37:13.369                             : en:Chapter 8
02:03:56.720                             : en:Chapter 9
02:14:09.041                             : en:Chapter 10
02:15:45.428                             : en:Chapter 11



Скриншоты:
[+] Всего файлов в раздаче - 1:
Bad.Times.at.the.El.Royale.2018.BDREMUX.mkv31.07 GB

Текущая раздача:
ДатаКомментарии    РазмерПиры
2018-12-29 U Ничего хорошего в отеле «Эль рояль» / Bad Times at the El Royale (2018) BDRemux 1080p | D 31.07 GB ↑ 231 ↓ 323

Показать еще раздачи по запросу ничего:
2019-01-09 U Всё или ничего (2018) WEB-DLRip от Scarabey | iTunes 1.44 GB ↑ 86 ↓ 24
2019-01-08 U Всё или ничего (2018) WEB-DLRip-AVC от Generalfilm | iTunes 1.21 GB ↑ 163 ↓ 30
2019-01-07 U Всё или ничего (2018) WEB-DLRip-AVC от ExKinoRay | iTunes 744.60 MB ↑ 113 ↓ 45
2019-01-06 U Всё или ничего (2018) WEB-DLRip от Generalfilm | КПК | iTunes 336.55 MB ↑ 65 ↓ 30
2019-01-06 U Всё или ничего (2018) WEB-DLRip от GeneralFilm | iTunes 744.69 MB ↑ 158 ↓ 93
2019-01-06 U Всё или ничего (2018) WEB-DLRip от MegaPeer | iTunes 2К1.46 GB ↑ 1012 ↓ 385
2019-01-06 U Всё или ничего (2018) WEB-DL 1080p | iTunes 3.08 GB ↑ 677 ↓ 324

Отзывы
Зарегистрируйтесь чтобы добавить комментарий.
Обратная связь
Copyleft ©