↑↓Torrent.by
Поиск
Логин: Регистрация
Пароль: Восстановить пароль
Загрузка...

Вы умрете, или мы вернем вам деньги / Dead in a Week: Or Your Money Back (2018) BDRip | iTunes

Скачать vy-umrete-ili-my-vernem-vam-dengi-dead-in-a-week-or-your-money-back-2018-bdrip-itunes.torrent
U Магнитная ссылка Размер: 1.43 GB Раздают: 219 Качают: 181 Добавлен: 2018-12-30 06:51:28
Вы умрете, или мы вернем вам деньги / Dead in a Week: Or Your Money Back (2018) BDRip | iTunes

Название: Вы умрете, или мы вернем вам деньги
Оригинальное название: Dead in a Week: Or Your Money Back
Год выхода: 2018
Жанр: Боевик, комедия
Страна: Великобритания
Перевод: Дублированный | iTunes
Продолжительность: 01:30:14
Режиссер: Том Эдмундс
В ролях: Кристофер Экклстон, Анайрин Барнард, Том Уилкинсон, Фрейя Мавор, Гетин Энтони, Найджел Линдсэй, Мэрион Бэйли, Натали Баскомб, Марсия Уоррен, Велибор Топич и др.

О фильме: После очередной неудавшейся попытки свести счеты с жизнью незадачливый писатель Уильям обращается к услугам наемного убийцы Лесли — неумолимого ангела смерти из «Гильдии Убийц» — организации, готовой оказать помощь всякому, кто нуждается в быстром и безболезненном уходе из жизни. У Лесли доброе сердце, но нетвердая рука. Начальство мечтает отправить его на пенсию, а подвернувшийся контракт — единственный шанс отсрочить неизбежное. Однако в дело вмешивается случай. Уильяму вдруг улыбнулась судьба: он влюбляется…

Файл
Формат: AVI
Качество: BDRip | Dead.in.a.Week.Or.Your.Money.Back.2018.1080p.BluRay.REMUX.AVC.DTS-HD.MA.5.1-FGT
Видео: Xvid 73, 704x384, ~1875 kbps, 24,000 fps
Звук: русский, AC3, 5.1 ch, 48 kHz, 384 kbps | iTunes
Субтитры: нет


[+] MI
General
Полное имя                               : F:TorrentDeadinaWeekOrYourMoneyBackBDRip.avi
Формат                                   : AVI
Формат/Информация                        : Audio Video Interleave
Профиль формата                          : OpenDML
Размер файла                             : 1.43 GiB
Продолжительность                        : 1 h 30 min
Общий поток                              : 2 271 kb/s
Программа кодирования                    : XviD4PSP 6.0 / 54.27.101

Video
Идентификатор                            : 0
Формат                                   : MPEG-4 Visual
Профиль формата                          : Advanced Simple@L5
Настройки формата                        : BVOP2 / Custom Matrix
Параметр BVOP формата                    : 2
Параметр QPel формата                    : No
Параметр GMC формата                     : No warppoints
Параметр матрицы формата                 : Custom
Идентификатор кодека                     : XVID
Идентификатор кодека/Подсказка           : XviD
Продолжительность                        : 1 h 30 min
Битрейт                                  : 1 875 kb/s
Ширина                                   : 704 pixels
Высота                                   : 384 pixels
Соотношение сторон                       : 1.85:1
Частота кадров                           : 24.000 FPS
Цветовое пространство                    : YUV
Субдискретизация насыщенности            : 4:2:0
Битовая глубина                          : 8 bits
Тип развёртки                            : Progressive
Метод сжатия                             : Lossy
Бит/(Пиксели*Кадры)                      : 0.289
Размер потока                            : 1.18 GiB (83%)
Библиотека кодирования                   : XviD 73

Audio
Идентификатор                            : 1
Формат                                   : AC-3
Формат/Информация                        : Audio Coding 3
Идентификатор кодека                     : 2000
Продолжительность                        : 1 h 30 min
Вид битрейта                             : Constant
Битрейт                                  : 384 kb/s
Каналы                                   : 6 channels
Расположение каналов                     : Front: L C R, Side: L R, LFE
Частота                                  : 48.0 kHz
Частота кадров                           : 31.250 FPS (1536 SPF)
Битовая глубина                          : 16 bits
Метод сжатия                             : Lossy
Размер потока                            : 248 MiB (17%)
Выравнивание                             : Aligned on interleaves
Продолжительность промежутка             : 32  ms (0.77 video frame)




Скриншоты:
[+] Всего файлов в раздаче - 1:
DeadinaWeekOrYourMoneyBackBDRip.avi1.43 GB

Текущая раздача:
ДатаКомментарии    РазмерПиры
2018-12-30 U Вы умрете, или мы вернем вам деньги / Dead in a Week: Or Your Money Back (2018) BDRip | iTunes 1.43 GB ↑ 219 ↓ 181

Показать еще раздачи по запросу умрете:
2019-01-03 U Вы умрете, или мы вернем вам деньги / Dead in a Week: Or Your Money Back (2018) BDRip от ExKinoRay | iTunes 1.42 GB ↑ 124 ↓ 36
2019-01-01 U Вы умрете, или мы вернем вам деньги / Dead in a Week: Or Your Money Back (2018) HDRip от Scarabey | iTunes 1.45 GB ↑ 89 ↓ 32
2018-12-31 U Вы умрете, или мы вернем вам деньги / Dead in a Week: Or Your Money Back (2018) BDRip-AVC от OlLanDGroup | iTunes 1.92 GB ↑ 107 ↓ 29
2018-12-30 U Вы умрете, или мы вернем вам деньги / Dead in a Week: Or Your Money Back (2018) BDRip от MegaPeer | iTunes 744.55 MB ↑ 231 ↓ 75
2018-12-30 U Вы умрете, или мы вернем вам деньги / Dead in a Week: Or Your Money Back (2018) BDRip от MegaPeer | iTunes 1.42 GB ↑ 366 ↓ 129
2018-12-30 U Вы умрете, или мы вернем вам деньги / Dead in a Week: Or Your Money Back (2018) BDRip 1080p | iTunes 1К7.10 GB ↑ 976 ↓ 421
2018-12-30 U Вы умрете, или мы вернем вам деньги / Dead in a Week: Or Your Money Back (2018) BDRip 720p | iTunes 3.82 GB ↑ 100 ↓ 160

Отзывы
Зарегистрируйтесь чтобы добавить комментарий.
Обратная связь
Copyleft ©