↑↓Torrent.by
Поиск
Логин: Регистрация
Пароль: Восстановить пароль
Загрузка...

Новогодний ангел (2018) WEBRip от GeneralFilm

Скачать novogodniy-angel-2018-webrip-ot-generalfilm.torrent
U Магнитная ссылка Размер: 1.45 GB Раздают: 108 Качают: 57 Добавлен: 2018-12-30 14:07:31
Новогодний ангел (2018) WEBRip от GeneralFilm

Оригинальное название: Новогодний ангел
Год выпуска: 2018
Жанр:  Драма
Выпущено: Украина, Кинокомпания "Киевтелефильм"
Режиссер: Валерий Ибрагимов
В ролях: Евгения Нохрина, Александра Назарова, Владислав Канопка, Юлия Юрченко, Александр Попов (IV), Наталия Цыганенко, Николай Боклан, Анна Тринчер, Юлия Першута, Лев Сомов, Владимир Гладкий, Валерия Чайковская

О фильме: В новогоднюю ночь девушку-студентку выгоняют из общежития. Отчаявшись, она бредет сквозь снег, куда глаза глядят, и случайно знакомится с парнем. Он тоже в расстроенных чувствах, ведь в праздник разругался со своей невестой. Новый друг по несчастью предлагает подвезти девушку, и во время поездки они попадают в автомобильную аварию...

Качество: WEBRip
Видео: XviD build 73, 720x400 (16:9), 25.000 fps, 1935 Kbps (0.269 bit/pixel)
Аудио: 48.0 kHz, AC3, 2/0 ch, 192 kbps
Продолжительность: 01:37:27
Перевод: Не требуется
Cубтитры: нет

Релиз:
[+] MediaInfo

General
Complete name               : D:RazdachiNov.Angel.2018.XviD.WEBRip.GeneralFilm.avi
Format                      : AVI
Format/Info                 : Audio Video Interleave
File size                   : 1.45 GiB
Duration                    : 1 h 37 min
Overall bit rate            : 2 136 kb/s
Writing application         : VirtualDubMod 1.5.10.3 | www.virtualdub-fr.org || (build 2550/release)
Writing library             : VirtualDubMod build 2550/release

Video
ID                          : 0
Format                      : MPEG-4 Visual
Format profile              : Advanced Simple@L5
Format settings, BVOP       : 1
Format settings, QPel       : No
Format settings, GMC        : No warppoints
Format settings, Matrix     : Custom
Codec ID                    : XVID
Codec ID/Hint               : XviD
Duration                    : 1 h 37 min
Bit rate                    : 1 935 kb/s
Width                       : 720 pixels
Height                      : 400 pixels
Display aspect ratio        : 16:9
Frame rate                  : 25.000 FPS
Color space                 : YUV
Chroma subsampling          : 4:2:0
Bit depth                   : 8 bits
Scan type                   : Progressive
Compression mode            : Lossy
Bits/(Pixel*Frame)          : 0.269
Stream size                 : 1.32 GiB (91%)
Writing library             : XviD 73

Audio
ID                          : 1
Format                      : AC-3
Format/Info                 : Audio Coding 3
Format settings, Endianness : Big
Codec ID                    : 2000
Duration                    : 1 h 37 min
Bit rate mode               : Constant
Bit rate                    : 192 kb/s
Channel(s)                  : 2 channels
Channel positions           : Front: L R
Sampling rate               : 48.0 kHz
Frame rate                  : 31.250 FPS (1536 SPF)
Bit depth                   : 16 bits
Compression mode            : Lossy
Stream size                 : 134 MiB (9%)
Alignment                   : Split accross interleaves
Interleave, duration        : 40  ms (1.00 video frame)
Interleave, preload duratio : 500  ms
Service kind                : Complete Main



Скриншоты:
[+] Всего файлов в раздаче - 1:
Nov.Angel.2018.XviD.WEBRip.GeneralFilm.avi1.45 GB

Текущая раздача:
ДатаКомментарии    РазмерПиры
2018-12-30 U Новогодний ангел (2018) WEBRip от GeneralFilm 1.45 GB ↑ 108 ↓ 57

Показать еще раздачи по запросу новогодний:
2019-01-20 U Новый Comedy Club. Новогодний выпуск. Караоке Star [01-02 из 02] [эфир от 31.12] (2018) HDTV 1080i 8.73 GB ↑ 21 ↓ 7
2019-01-14 U Новогодний экспресс / Любовь дальнего следования [01-02 из 02] (2018) WEB-DLRip от Files-x 2.19 GB ↑ 39 ↓ 5
2019-01-14 U Новогодний экспресс / Любовь дальнего следования [01-02 из 02] (2018) HDTVRip 720p от ExKinoRay 5.09 GB ↑ 36 ↓ 14
2019-01-13 U Новогодний экспресс / Любовь дальнего следования [01-02 из 02] (2018) WEB-DLRip-AVC от Files-x 2.18 GB ↑ 209 ↓ 40
2019-01-13 U Новогодний экспресс [01-02 из 02] (2018) SATRip 2.24 GB ↑ 64 ↓ 19
2019-01-05 U Новогодний Голубой огонек [01-03 из 03] (2019) HDTVRip от Files-x 4.89 GB ↑ 72 ↓ 17
2019-01-03 U Новогодний Голубой огонек [01-03 из 03] (2019) HDTVRip от Files-x 4.89 GB ↑ 79 ↓ 52

Отзывы
Зарегистрируйтесь чтобы добавить комментарий.
Обратная связь
Copyleft ©