↑↓Torrent.by
Поиск
Логин: Регистрация
Пароль: Восстановить пароль
Загрузка...

Голый пистолет / The Naked Gun: From the Files of Police Squad! (1988) BDRip 720p от k.e.n & MegaPeer | P, P2, A

Скачать golyy-pistolet-the-naked-gun-from-files-of-police-squad-1988-bdrip-720p-ot-k-e-n-megapeer-p-p2-a.torrent
U Магнитная ссылка Размер: 7.75 GB Раздают: 53 Качают: 19 Добавлен: 2018-12-31 06:09:05
Голый пистолет / The Naked Gun: From the Files of Police Squad! (1988) BDRip 720p от k.e.n & MegaPeer | P, P2, A

Название: Голый пистолет
Оригинальное название: The Naked Gun: From the Files of Police Squad!
Год выхода: 1988
Жанр: комедия, криминал
Режиссер: Дэвид Цукер
В ролях: Лесли Нильсен, Присцилла Пресли, Рикардо Монтальбан, Джордж Кеннеди, О. Дж. Симпсон, Susan Beaubian, Нэнси Маршанд, Рэй Бирк, Жанетт Чарльз, Эд Уильямс

О фильме:
Вернувшись с задания на Ближнем Востоке, полицейский Фрэнк Дребин узнаёт, что жена ушла от него, а напарник попал в больницу с тяжёлым ранением, полученным при выполнении расследования об аферах с наркотиками в порту. Продолжая расследование, герой узнает, что готовится убийство королевы Великобритании Елизаветы II во время её визита в США.
Дребин выходит на наркобарона Винсента Людвига, который планирует покушение на королеву. Людвиг овладел технологией внушения и может заставить человека совершить любой поступок по приказу со специального пульта. Людвиг подсылает к Фрэнку свою ассистентку Джейн Спенсер, но вместо того, чтобы соблазнить полицейского, Джейн сама в него влюбляется. Она рассказывает Фрэнку, что покушение на королеву произойдёт во время бейсбольного матча. Фрэнк под видом судьи попадает на поле, обезоруживает убийцу и предотвращает крупнейший политический скандал.

 
Страна: США
Студия: Paramount Pictures
Продолжительность: 01:24:59
Перевод: Профессиональный (многоголосый закадровый), профессиональный (двухголосый закадровый), авторский (одноголосый закадровый)

Файл
Кодек: Н.264
Качество: BDRip 720p
Видео: AVC, 1280x720 (16:9), 23.976 fps, 8 000 Kbps (0.362 bit/pixel)
Звук:
Аудио #1: AC-3, 48.0 KHz, 6 ch, 448 Kbps, CBR (Russian) - многоголосый Видеобиз
Аудио #2: AC-3, 48.0 KHz, 6 ch, 448 Kbps, CBR (Russian) - авторский А.Михалёв
Аудио #3: AC-3, 48.0 KHz, 6 ch, 448 Kbps, CBR (Russian) - авторский Д.Пучков
Аудио #4: AC-3, 48.0 KHz, 6 ch, 448 Kbps, CBR (Russian) - авторский В.Горчаков (поздний)
Аудио #5: AC-3, 48.0 KHz, 6 ch, 448 Kbps, CBR (Russian) - авторский Ю.Живов (поздний)
Аудио #6: AC-3, 48.0 KHz, 2 ch, 192 Kbps, CBR (Russian) - многоголосый СТС
Аудио #7: AC-3, 48.0 KHz, 2 ch, 192 Kbps, CBR (Russian) - многоголосый РТР
Аудио #8: AC-3, 48.0 KHz, 2 ch, 192 Kbps, CBR (Russian) - многоголосый ТВЦ
Аудио #9: AC-3, 48.0 KHz, 2 ch, 192 Kbps, CBR (Russian) - двухголосый НТВ+
Аудио #10: AC-3, 48.0 KHz, 2 ch, 192 Kbps, CBR (Russian) - двухголосый Премьер Видео
Аудио #11: AC-3, 48.0 KHz, 6 ch, 448 Kbps, CBR (Russian) - двухголосый П.Гланц и И.Королёва
Аудио #12: AC-3, 48.0 KHz, 2 ch, 192 Kbps, CBR (Russian) - авторский Ю.Живов (ранний)
Аудио #13: AC-3, 48.0 KHz, 2 ch, 192 Kbps, CBR (Russian) - авторский В.Горчаков (ранний)
Аудио #14: AC-3, 48.0 KHz, 2 ch, 192 Kbps, CBR (Russian) - авторский Диктор CDV
Аудио #15: AC-3, 48.0 KHz, 2 ch, 192 Kbps, CBR (Russian) - авторский А.Мишин
Аудио #16: AC-3, 48.0 KHz, 2 ch, 192 Kbps, CBR (Russian) - неизвестный
Аудио #17: AC-3, 48.0 KHz, 6 ch, 448 Kbps, CBR (English) - оригинальная звуковая дорожка
Субтитры: Русские, английские

Скриншоты:

Релиз: Группа в ВК   &


[+] MediaInfo:
Полное имя                               : D:ФИЛЬМЫГолый пистолет.1988 (Л.Нильсен, П.Пресли).k.e.n & MegaPeer.mkv
Формат                                   : Matroska
Версия формата                           : Version 2
Размер файла                             : 7,75 Гбайт
Продолжительность                        : 1 ч. 24 м.
Общий поток                              : 13,1 Мбит/сек
Дата кодирования                         : UTC 2017-11-04 22:40:06
Программа кодирования                    : mkvmerge v5.3.0 ('I could have danced') built on Feb  9 2012 10:38:07
Библиотека кодирования                   : libebml v1.2.3 + libmatroska v1.3.0
Attachments                              : poster 0.png

Видео
Идентификатор                            : 1
Формат                                   : AVC
Формат/Информация                        : Advanced Video Codec
Профиль формата                          : High@L4.1
Параметр CABAC формата                   : Да
Параметр ReFrames формата                : 9 кадров
Идентификатор кодека                     : V_MPEG4/ISO/AVC
Продолжительность                        : 1 ч. 24 м.
Битрейт                                  : 8000 Кбит/сек
Ширина                                   : 1280 пикселей
Высота                                   : 720 пикселей
Соотношение сторон                       : 16:9
Режим частоты кадров                     : Постоянный
Частота кадров                           : 23,976 (24000/1001) кадра/сек
Цветовое пространство                    : YUV
Субдискретизация насыщенности            : 4:2:0
Битовая глубина                          : 8 бит
Тип развёртки                            : Прогрессивная
Бит/(Пиксели*Кадры)                      : 0.362
Размер потока                            : 4,60 Гбайт (59%)
Библиотека кодирования                   : x264 core 146 r2538 121396c
Настройки программы                      : cabac=1 / ref=9 / deblock=1:-3:-3 / analyse=0x3:0x133 / me=umh / subme=11 / psy=1 / psy_rd=1.00:0.05 / mixed_ref=1 / me_range=32 / chroma_me=1 / trellis=2 / 8x8dct=1 / cqm=0 / deadzone=21,11 / fast_pskip=0 / chroma_qp_offset=-3 / threads=12 / lookahead_threads=3 / sliced_threads=0 / nr=0 / decimate=0 / interlaced=0 / bluray_compat=0 / constrained_intra=0 / bframes=10 / b_pyramid=2 / b_adapt=2 / b_bias=0 / direct=3 / weightb=1 / open_gop=0 / weightp=2 / keyint=240 / keyint_min=23 / scenecut=40 / intra_refresh=0 / rc=2pass / mbtree=0 / bitrate=8000 / ratetol=1.0 / qcomp=0.60 / qpmin=0 / qpmax=69 / qpstep=4 / cplxblur=20.0 / qblur=0.5 / ip_ratio=1.40 / pb_ratio=1.30 / aq=3:0.90
Язык                                     : English
Default                                  : Да
Forced                                   : Нет

Аудио #1
Идентификатор                            : 2
Формат                                   : AC-3
Формат/Информация                        : Audio Coding 3
Расширение режима                        : CM (complete main)
Параметр Endianness формата              : Big
Идентификатор кодека                     : A_AC3
Продолжительность                        : 1 ч. 24 м.
Вид битрейта                             : Постоянный
Битрейт                                  : 448 Кбит/сек
Каналы                                   : 6 каналов
Расположение каналов                     : Front: L C R, Side: L R, LFE
Частота                                  : 48,0 КГц
Частота кадров                           : 31,250 кадров/сек (1536 spf)
Битовая глубина                          : 16 бит
Метод сжатия                             : С потерями
Размер потока                            : 272 Мбайт (3%)
Заголовок                                : Профессиональный (многоголосый закадровый) Видеобиз
Язык                                     : Russian
Default                                  : Да
Forced                                   : Да

Аудио #2
Идентификатор                            : 3
Формат                                   : AC-3
Формат/Информация                        : Audio Coding 3
Расширение режима                        : CM (complete main)
Параметр Endianness формата              : Big
Идентификатор кодека                     : A_AC3
Продолжительность                        : 1 ч. 24 м.
Вид битрейта                             : Постоянный
Битрейт                                  : 448 Кбит/сек
Каналы                                   : 6 каналов
Расположение каналов                     : Front: L C R, Side: L R, LFE
Частота                                  : 48,0 КГц
Частота кадров                           : 31,250 кадров/сек (1536 spf)
Битовая глубина                          : 16 бит
Метод сжатия                             : С потерями
Размер потока                            : 272 Мбайт (3%)
Заголовок                                : Авторский (одноголосый закадровый) А. Михалёв
Язык                                     : Russian
Default                                  : Нет
Forced                                   : Нет

Аудио #3
Идентификатор                            : 4
Формат                                   : AC-3
Формат/Информация                        : Audio Coding 3
Расширение режима                        : CM (complete main)
Параметр Endianness формата              : Big
Идентификатор кодека                     : A_AC3
Продолжительность                        : 1 ч. 24 м.
Вид битрейта                             : Постоянный
Битрейт                                  : 448 Кбит/сек
Каналы                                   : 6 каналов
Расположение каналов                     : Front: L C R, Side: L R, LFE
Частота                                  : 48,0 КГц
Частота кадров                           : 31,250 кадров/сек (1536 spf)
Битовая глубина                          : 16 бит
Метод сжатия                             : С потерями
Размер потока                            : 272 Мбайт (3%)
Заголовок                                : Авторский (одноголосый закадровый) Д. Пучков
Язык                                     : Russian
Default                                  : Нет
Forced                                   : Нет

Аудио #4
Идентификатор                            : 5
Формат                                   : AC-3
Формат/Информация                        : Audio Coding 3
Расширение режима                        : CM (complete main)
Параметр Endianness формата              : Big
Идентификатор кодека                     : A_AC3
Продолжительность                        : 1 ч. 24 м.
Вид битрейта                             : Постоянный
Битрейт                                  : 448 Кбит/сек
Каналы                                   : 6 каналов
Расположение каналов                     : Front: L C R, Side: L R, LFE
Частота                                  : 48,0 КГц
Частота кадров                           : 31,250 кадров/сек (1536 spf)
Битовая глубина                          : 16 бит
Метод сжатия                             : С потерями
Размер потока                            : 272 Мбайт (3%)
Заголовок                                : Авторский (одноголосый закадровый) В. Горчаков-поздний
Язык                                     : Russian
Default                                  : Нет
Forced                                   : Нет

Аудио #5
Идентификатор                            : 6
Формат                                   : AC-3
Формат/Информация                        : Audio Coding 3
Расширение режима                        : CM (complete main)
Параметр Endianness формата              : Big
Идентификатор кодека                     : A_AC3
Продолжительность                        : 1 ч. 24 м.
Вид битрейта                             : Постоянный
Битрейт                                  : 448 Кбит/сек
Каналы                                   : 6 каналов
Расположение каналов                     : Front: L C R, Side: L R, LFE
Частота                                  : 48,0 КГц
Частота кадров                           : 31,250 кадров/сек (1536 spf)
Битовая глубина                          : 16 бит
Метод сжатия                             : С потерями
Размер потока                            : 272 Мбайт (3%)
Заголовок                                : Авторский (одноголосый закадровый) Ю. Живов-поздний
Язык                                     : Russian
Default                                  : Нет
Forced                                   : Нет

Аудио #6
Идентификатор                            : 7
Формат                                   : AC-3
Формат/Информация                        : Audio Coding 3
Расширение режима                        : CM (complete main)
Параметр Endianness формата              : Big
Идентификатор кодека                     : A_AC3
Продолжительность                        : 1 ч. 24 м.
Вид битрейта                             : Постоянный
Битрейт                                  : 192 Кбит/сек
Каналы                                   : 2 канала
Расположение каналов                     : Front: L R
Частота                                  : 48,0 КГц
Частота кадров                           : 31,250 кадров/сек (1536 spf)
Битовая глубина                          : 16 бит
Метод сжатия                             : С потерями
Размер потока                            : 117 Мбайт (1%)
Заголовок                                : Профессиональный (многоголосый закадровый) СТС
Язык                                     : Russian
Default                                  : Нет
Forced                                   : Нет

Аудио #7
Идентификатор                            : 8
Формат                                   : AC-3
Формат/Информация                        : Audio Coding 3
Расширение режима                        : CM (complete main)
Параметр Endianness формата              : Big
Идентификатор кодека                     : A_AC3
Продолжительность                        : 1 ч. 24 м.
Вид битрейта                             : Постоянный
Битрейт                                  : 192 Кбит/сек
Каналы                                   : 2 канала
Расположение каналов                     : Front: L R
Частота                                  : 48,0 КГц
Частота кадров                           : 31,250 кадров/сек (1536 spf)
Битовая глубина                          : 16 бит
Метод сжатия                             : С потерями
Размер потока                            : 117 Мбайт (1%)
Заголовок                                : Профессиональный (многоголосый закадровый) РТР
Язык                                     : Russian
Default                                  : Нет
Forced                                   : Нет

Аудио #8
Идентификатор                            : 9
Формат                                   : AC-3
Формат/Информация                        : Audio Coding 3
Расширение режима                        : CM (complete main)
Параметр Endianness формата              : Big
Идентификатор кодека                     : A_AC3
Продолжительность                        : 1 ч. 24 м.
Вид битрейта                             : Постоянный
Битрейт                                  : 192 Кбит/сек
Каналы                                   : 2 канала
Расположение каналов                     : Front: L R
Частота                                  : 48,0 КГц
Частота кадров                           : 31,250 кадров/сек (1536 spf)
Битовая глубина                          : 16 бит
Метод сжатия                             : С потерями
Размер потока                            : 117 Мбайт (1%)
Заголовок                                : Профессиональный (многоголосый закадровый) ТВ-Центр
Язык                                     : Russian
Default                                  : Нет
Forced                                   : Нет

Аудио #9
Идентификатор                            : 10
Формат                                   : AC-3
Формат/Информация                        : Audio Coding 3
Расширение режима                        : CM (complete main)
Параметр Endianness формата              : Big
Идентификатор кодека                     : A_AC3
Продолжительность                        : 1 ч. 24 м.
Вид битрейта                             : Постоянный
Битрейт                                  : 192 Кбит/сек
Каналы                                   : 2 канала
Расположение каналов                     : Front: L R
Частота                                  : 48,0 КГц
Частота кадров                           : 31,250 кадров/сек (1536 spf)
Битовая глубина                          : 16 бит
Метод сжатия                             : С потерями
Размер потока                            : 117 Мбайт (1%)
Заголовок                                : Профессиональный (двухголосый закадровый) НТВ+
Язык                                     : Russian
Default                                  : Нет
Forced                                   : Нет

Аудио #10
Идентификатор                            : 11
Формат                                   : AC-3
Формат/Информация                        : Audio Coding 3
Расширение режима                        : CM (complete main)
Параметр Endianness формата              : Big
Идентификатор кодека                     : A_AC3
Продолжительность                        : 1 ч. 24 м.
Вид битрейта                             : Постоянный
Битрейт                                  : 192 Кбит/сек
Каналы                                   : 2 канала
Расположение каналов                     : Front: L R
Частота                                  : 48,0 КГц
Частота кадров                           : 31,250 кадров/сек (1536 spf)
Битовая глубина                          : 16 бит
Метод сжатия                             : С потерями
Размер потока                            : 117 Мбайт (1%)
Заголовок                                : Профессиональный (двухголосый закадровый) Премьер Видео
Язык                                     : Russian
Default                                  : Нет
Forced                                   : Нет

Аудио #11
Идентификатор                            : 12
Формат                                   : AC-3
Формат/Информация                        : Audio Coding 3
Расширение режима                        : CM (complete main)
Параметр Endianness формата              : Big
Идентификатор кодека                     : A_AC3
Продолжительность                        : 1 ч. 24 м.
Вид битрейта                             : Постоянный
Битрейт                                  : 448 Кбит/сек
Каналы                                   : 6 каналов
Расположение каналов                     : Front: L C R, Side: L R, LFE
Частота                                  : 48,0 КГц
Частота кадров                           : 31,250 кадров/сек (1536 spf)
Битовая глубина                          : 16 бит
Метод сжатия                             : С потерями
Размер потока                            : 272 Мбайт (3%)
Заголовок                                : Профессиональный (двухголосый закадровый) П. Гланц и И. Королёва
Язык                                     : Russian
Default                                  : Нет
Forced                                   : Нет

Аудио #12
Идентификатор                            : 13
Формат                                   : AC-3
Формат/Информация                        : Audio Coding 3
Расширение режима                        : CM (complete main)
Параметр Endianness формата              : Big
Идентификатор кодека                     : A_AC3
Продолжительность                        : 1 ч. 24 м.
Вид битрейта                             : Постоянный
Битрейт                                  : 192 Кбит/сек
Каналы                                   : 2 канала
Расположение каналов                     : Front: L R
Частота                                  : 48,0 КГц
Частота кадров                           : 31,250 кадров/сек (1536 spf)
Битовая глубина                          : 16 бит
Метод сжатия                             : С потерями
Размер потока                            : 117 Мбайт (1%)
Заголовок                                : Авторский (одноголосый закадровый) Ю. Живов-ранний
Язык                                     : Russian
Default                                  : Нет
Forced                                   : Нет

Аудио #13
Идентификатор                            : 14
Формат                                   : AC-3
Формат/Информация                        : Audio Coding 3
Расширение режима                        : CM (complete main)
Параметр Endianness формата              : Big
Идентификатор кодека                     : A_AC3
Продолжительность                        : 1 ч. 24 м.
Вид битрейта                             : Постоянный
Битрейт                                  : 192 Кбит/сек
Каналы                                   : 2 канала
Расположение каналов                     : Front: L R
Частота                                  : 48,0 КГц
Частота кадров                           : 31,250 кадров/сек (1536 spf)
Битовая глубина                          : 16 бит
Метод сжатия                             : С потерями
Размер потока                            : 117 Мбайт (1%)
Заголовок                                : Авторский (одноголосый закадровый) В. Горчаков-ранний
Язык                                     : Russian
Default                                  : Нет
Forced                                   : Нет

Аудио #14
Идентификатор                            : 15
Формат                                   : AC-3
Формат/Информация                        : Audio Coding 3
Расширение режима                        : CM (complete main)
Параметр Endianness формата              : Big
Идентификатор кодека                     : A_AC3
Продолжительность                        : 1 ч. 24 м.
Вид битрейта                             : Постоянный
Битрейт                                  : 192 Кбит/сек
Каналы                                   : 2 канала
Расположение каналов                     : Front: L R
Частота                                  : 48,0 КГц
Частота кадров                           : 31,250 кадров/сек (1536 spf)
Битовая глубина                          : 16 бит
Метод сжатия                             : С потерями
Размер потока                            : 117 Мбайт (1%)
Заголовок                                : Авторский (одноголосый закадровый) диктор CDV
Язык                                     : Russian
Default                                  : Нет
Forced                                   : Нет

Аудио #15
Идентификатор                            : 16
Формат                                   : AC-3
Формат/Информация                        : Audio Coding 3
Расширение режима                        : CM (complete main)
Параметр Endianness формата              : Big
Идентификатор кодека                     : A_AC3
Продолжительность                        : 1 ч. 24 м.
Вид битрейта                             : Постоянный
Битрейт                                  : 192 Кбит/сек
Каналы                                   : 2 канала
Расположение каналов                     : Front: L R
Частота                                  : 48,0 КГц
Частота кадров                           : 31,250 кадров/сек (1536 spf)
Битовая глубина                          : 16 бит
Метод сжатия                             : С потерями
Размер потока                            : 117 Мбайт (1%)
Заголовок                                : Авторский (одноголосый закадровый) А. Мишин
Язык                                     : Russian
Default                                  : Нет
Forced                                   : Нет

Аудио #16
Идентификатор                            : 17
Формат                                   : AC-3
Формат/Информация                        : Audio Coding 3
Расширение режима                        : CM (complete main)
Параметр Endianness формата              : Big
Идентификатор кодека                     : A_AC3
Продолжительность                        : 1 ч. 24 м.
Вид битрейта                             : Постоянный
Битрейт                                  : 192 Кбит/сек
Каналы                                   : 2 канала
Расположение каналов                     : Front: L R
Частота                                  : 48,0 КГц
Частота кадров                           : 31,250 кадров/сек (1536 spf)
Битовая глубина                          : 16 бит
Метод сжатия                             : С потерями
Размер потока                            : 117 Мбайт (1%)
Заголовок                                : Одноголосый закадровый Неизвестный
Язык                                     : Russian
Default                                  : Нет
Forced                                   : Нет

Аудио #17
Идентификатор                            : 18
Формат                                   : AC-3
Формат/Информация                        : Audio Coding 3
Расширение режима                        : CM (complete main)
Параметр Endianness формата              : Big
Идентификатор кодека                     : A_AC3
Продолжительность                        : 1 ч. 24 м.
Вид битрейта                             : Постоянный
Битрейт                                  : 448 Кбит/сек
Каналы                                   : 6 каналов
Расположение каналов                     : Front: L C R, Side: L R, LFE
Частота                                  : 48,0 КГц
Частота кадров                           : 31,250 кадров/сек (1536 spf)
Битовая глубина                          : 16 бит
Метод сжатия                             : С потерями
Размер потока                            : 272 Мбайт (3%)
Язык                                     : English
Default                                  : Нет
Forced                                   : Нет

Текст #1
Идентификатор                            : 19
Формат                                   : UTF-8
Идентификатор кодека                     : S_TEXT/UTF8
Идентификатор кодека/Информация          : UTF-8 Plain Text
Заголовок                                : full Гоблин
Язык                                     : Russian
Default                                  : Нет
Forced                                   : Нет

Текст #2
Идентификатор                            : 20
Формат                                   : UTF-8
Идентификатор кодека                     : S_TEXT/UTF8
Идентификатор кодека/Информация          : UTF-8 Plain Text
Заголовок                                : full Прожектор
Язык                                     : Russian
Default                                  : Нет
Forced                                   : Нет

Текст #3
Идентификатор                            : 21
Формат                                   : UTF-8
Идентификатор кодека                     : S_TEXT/UTF8
Идентификатор кодека/Информация          : UTF-8 Plain Text
Заголовок                                : full
Язык                                     : English
Default             &nb
[+] Всего файлов в раздаче - 1:
Голый пистолет.1988 (Л.Нильсен, П.Пресли).k.e.n & MegaPeer.mkv7.75 GB

Текущая раздача:
ДатаКомментарии    РазмерПиры
2018-12-31 U Голый пистолет / The Naked Gun: From the Files of Police Squad! (1988) BDRip 720p от k.e.n & MegaPeer | P, P2, A 7.75 GB ↑ 53 ↓ 19

Показать еще раздачи по запросу голый:
2018-12-31 U Голый пистолет 2 1/2: Запах страха / The Naked Gun 2 1/2: The Smell of Fear (1991) BDRip 720p от msltel 6.07 GB ↑ 67 ↓ 48
2018-12-31 U Голый пистолет 2 1/2: Запах страха / The Naked Gun 2 1/2: The Smell of Fear (1991) BDRip от HQCLUB 1.45 GB ↑ 69 ↓ 6
2018-12-31 U Голый пистолет 33 1/3: Последний выпад / Naked Gun 33 1/3: The Final Insult (1994) BDRip от HQCLUB 1.45 GB ↑ 87 ↓ 10
2018-12-31 U Голый пистолет: из архивов полиции! / The Naked Gun: From the Files of Police Squad! (1988) BDRip от HQCLUB 1.45 GB ↑ 97 ↓ 10
2017-09-27 U Голый пистолет: из архивов полиции! / The Naked Gun: From the Files of Police Squad! (1988) BDRip-AVC от SuperMin | P 1.87 GB ↑ 184 ↓ 67
2017-08-15 U Снова голый / Naken (2000) DVDRip | Р 1К1.71 GB ↑ 431 ↓ 76
2017-05-08 U Голый среди волков / Nackt unter Wolfen (2015) DVDRip 1.38 GB ↑ 236 ↓ 5

Отзывы
Зарегистрируйтесь чтобы добавить комментарий.
Обратная связь
Copyleft ©