↑↓Torrent.by
Поиск
Логин: Регистрация
Пароль: Восстановить пароль
Загрузка...

Черное зеркало: Брандашмыг / Black Mirror: Bandersnatch (2018) WEBRip 720p | OMSKBIRD

Скачать chernoe-zerkalo-brandashmyg-black-mirror-bandersnatch-2018-webrip-720p-omskbird.torrent
U Магнитная ссылка Размер: 2.05 GB Раздают: 47 Качают: 4 Добавлен: 2018-12-31 06:09:30
Черное зеркало: Брандашмыг / Black Mirror: Bandersnatch (2018) WEBRip 720p | OMSKBIRD

Название: Черное зеркало: Брандашмыг
Оригинальное название: Black Mirror: Bandersnatch
Год выхода: 2018
Жанр: фантастика, триллер, драма, детектив
Режиссер: Дэвид Слэйд
В ролях: Азим Чаудхри, Элис Лоу, Уилл Поултер, Финн Уайтхед и др.

О фильме:
1984 год. Молодой разработчик игр пытается превратить фантастический роман в игру. Вскоре реальность и виртуальный мир смешиваются, создавая невообразимую путаницу.

Страна: США, Великобритания
Продолжительность: 01:33:12
Перевод: Любительский (многоголосый закадровый) | OMSKBIRD

Файл
Кодек: MPEG-4 AVC
Качество: WEBRip 720p
Видео: AVC, 1280x720 (16:9), 25.000 fps, 2863 kbps
Звук: Аудио rus: AC-3, 48 KHz, 2 ch, 192 kbps | OMSKBIRD records

Семпл

Присутствует реклама!
[+] Mediainfo:
General
Unique ID                   : 205123236603903504634823607577171503761 (0x9A514C61BF5C8776A1D3FC6F8748AA91)
Complete name               : H:Мои ДокументыВидеоРАЗДАЧИЧЗBlack Mirror Bandersnatch 5х00 (Christmas Special) WEBRip 720p OMSKBIRD.mkv
Format                      : Matroska
Format version              : Version 2
File size                   : 2.05 GiB
Duration                    : 1 h 34 min
Overall bit rate            : 3 117 kb/s
Encoded date                : UTC 2018-12-30 19:42:57
Writing application         : mkvmerge v4.0.0 ('The Stars were mine') сборка от Jun  6 2010 16:18:42
Writing library             : libebml v1.0.0 + libmatroska v1.0.0

Video
ID                          : 1
Format                      : AVC
Format/Info                 : Advanced Video Codec
Format profile              : Main@L4.1
Format settings, CABAC      : Yes
Format settings, RefFrames  : 3 frames
Codec ID                    : V_MPEG4/ISO/AVC
Duration                    : 1 h 34 min
Bit rate                    : 2 863 kb/s
Width                       : 1 280 pixels
Height                      : 720 pixels
Display aspect ratio        : 16:9
Frame rate mode             : Constant
Frame rate                  : 25.000 FPS
Standard                    : PAL
Color space                 : YUV
Chroma subsampling          : 4:2:0
Bit depth                   : 8 bits
Scan type                   : Progressive
Bits/(Pixel*Frame)          : 0.124
Stream size                 : 1.89 GiB (92%)
Language                    : English
Default                     : Yes
Forced                      : No
Color range                 : Limited
Color primaries             : BT.709
Transfer characteristics    : BT.709
Matrix coefficients         : BT.709

Audio
ID                          : 2
Format                      : AC-3
Format/Info                 : Audio Coding 3
Format settings, Endianness : Big
Codec ID                    : A_AC3
Duration                    : 1 h 34 min
Bit rate mode               : Constant
Bit rate                    : 192 kb/s
Channel(s)                  : 2 channels
Channel positions           : Front: L R
Sampling rate               : 48.0 kHz
Frame rate                  : 31.250 FPS (1536 SPF)
Bit depth                   : 16 bits
Compression mode            : Lossy
Stream size                 : 130 MiB (6%)
Service kind                : Complete Main
Default                     : Yes
Forced                      : No




Скриншоты:
[+] Всего файлов в раздаче - 1:
Black Mirror Bandersnatch 5х00 (Christmas Special) WEBRip 720p OMSKBIRD.mkv2.05 GB

Текущая раздача:
ДатаКомментарии    РазмерПиры
2018-12-31 U Черное зеркало: Брандашмыг / Black Mirror: Bandersnatch (2018) WEBRip 720p | OMSKBIRD 2.05 GB ↑ 47 ↓ 4

Показать еще раздачи по запросу черное:
2019-01-10 U Черное зеркало / Black Mirror [S01-04 + Bandersnatch] (2011-2018) WEBRip | LostFilm 14.76 GB ↑ 28 ↓ 49
2019-01-09 U Черное зеркало: Брандашмыг / Black Mirror: Bandersnatch (2018) WEBRip 1080p | LostFilm 3.83 GB ↑ 305 ↓ 55
2019-01-09 U Черное зеркало: Брандашмыг / Black Mirror: Bandersnatch (2018) WEBRip от MegaPeer | LostFilm 1.46 GB ↑ 62 ↓ 15
2019-01-01 U Черное зеркало: Брандашмыг / Black Mirror: Bandersnatch (2018) WEBRip 720p | Profix Media 2.63 GB ↑ 94 ↓ 8
2019-01-01 U Черное зеркало: Брандашмыг / Black Mirror: Bandersnatch (2018) WEBRip-AVC | Profix Media 1.45 GB ↑ 84 ↓ 24
2018-12-31 U Черное зеркало: Брандашмыг / Black Mirror: Bandersnatch (2018) WEBRip | OMSKBIRD 1.31 GB ↑ 65 ↓ 11
2018-12-31 U Черное зеркало: Брандашмыг / Black Mirror: Bandersnatch (2018) WEBRip 1080p | Profix Media 3.54 GB ↑ 174 ↓ 91

Отзывы
Зарегистрируйтесь чтобы добавить комментарий.
Обратная связь
Copyleft ©