↑↓Torrent.by
Поиск
Логин: Регистрация
Пароль: Восстановить пароль
Загрузка...

Черное зеркало: Брандашмыг / Black Mirror: Bandersnatch (2018) WEBRip | OMSKBIRD

Скачать chernoe-zerkalo-brandashmyg-black-mirror-bandersnatch-2018-webrip-omskbird.torrent
U Магнитная ссылка Размер: 1.31 GB Раздают: 65 Качают: 11 Добавлен: 2018-12-31 13:25:02
Черное зеркало: Брандашмыг / Black Mirror: Bandersnatch (2018) WEBRip  | OMSKBIRD

Название: Черное зеркало: Брандашмыг
Оригинальное название: Black Mirror: Bandersnatch
Год выхода: 2018
Жанр: фантастика, триллер, драма, детектив
Режиссер: Дэвид Слэйд
В ролях: Азим Чаудхри, Элис Лоу, Уилл Поултер, Финн Уайтхед и др.

О фильме:
1984 год. Молодой разработчик игр пытается превратить фантастический роман в игру. Вскоре реальность и виртуальный мир смешиваются, создавая невообразимую путаницу.

Страна: США, Великобритания
Продолжительность: 01:33:12
Перевод: Любительский (многоголосый закадровый) | OMSKBIRD

Файл
Кодек: Xvid
Качество: WEBRip
Видео: AVI, 720x400 (16:9), 25.000 fps, 1787 kbps
Звук: Аудио rus: AC-3, 48 KHz, 2 ch, 192 kbps | OMSKBIRD records

Семпл

Присутствует реклама!
[+] Mediainfo:
General
Complete name               : H:Мои ДокументыВидеоРАЗДАЧИЧЗBlack Mirror Bandersnatch 5х00 (Christmas Special) WEBRip OMSKBIRD.avi
Format                      : AVI
Format/Info                 : Audio Video Interleave
File size                   : 1.31 GiB
Duration                    : 1 h 34 min
Overall bit rate            : 1 989 kb/s
Writing application         : VirtualDubMod 1.5.10.3 | www.virtualdub-fr.org || (build 2550/release)
Writing library             : VirtualDubMod build 2550/release

Video
ID                          : 0
Format                      : MPEG-4 Visual
Format profile              : Advanced Simple@L5
Format settings, BVOP       : 1
Format settings, QPel       : No
Format settings, GMC        : No warppoints
Format settings, Matrix     : Default (H.263)
Codec ID                    : XVID
Codec ID/Hint               : XviD
Duration                    : 1 h 34 min
Bit rate                    : 1 787 kb/s
Width                       : 720 pixels
Height                      : 400 pixels
Display aspect ratio        : 16:9
Frame rate                  : 25.000 FPS
Color space                 : YUV
Chroma subsampling          : 4:2:0
Bit depth                   : 8 bits
Scan type                   : Progressive
Compression mode            : Lossy
Bits/(Pixel*Frame)          : 0.248
Stream size                 : 1.18 GiB (90%)
Writing library             : XviD 67

Audio
ID                          : 1
Format                      : AC-3
Format/Info                 : Audio Coding 3
Format settings, Endianness : Big
Codec ID                    : 2000
Duration                    : 1 h 34 min
Bit rate mode               : Constant
Bit rate                    : 192 kb/s
Channel(s)                  : 2 channels
Channel positions           : Front: L R
Sampling rate               : 48.0 kHz
Frame rate                  : 31.250 FPS (1536 SPF)
Bit depth                   : 16 bits
Compression mode            : Lossy
Stream size                 : 130 MiB (10%)
Alignment                   : Split accross interleaves
Interleave, duration        : 40  ms (1.00 video frame)
Interleave, preload duratio : 500  ms
Service kind                : Complete Main




Скриншоты:
[+] Всего файлов в раздаче - 1:
Black Mirror Bandersnatch 5х00 (Christmas Special) WEBRip OMSKBIRD.avi1.31 GB

Текущая раздача:
ДатаКомментарии    РазмерПиры
2018-12-31 U Черное зеркало: Брандашмыг / Black Mirror: Bandersnatch (2018) WEBRip | OMSKBIRD 1.31 GB ↑ 65 ↓ 11

Показать еще раздачи по запросу черное:
2019-01-10 U Черное зеркало / Black Mirror [S01-04 + Bandersnatch] (2011-2018) WEBRip | LostFilm 14.76 GB ↑ 28 ↓ 49
2019-01-09 U Черное зеркало: Брандашмыг / Black Mirror: Bandersnatch (2018) WEBRip 1080p | LostFilm 3.83 GB ↑ 305 ↓ 55
2019-01-09 U Черное зеркало: Брандашмыг / Black Mirror: Bandersnatch (2018) WEBRip от MegaPeer | LostFilm 1.46 GB ↑ 62 ↓ 15
2019-01-01 U Черное зеркало: Брандашмыг / Black Mirror: Bandersnatch (2018) WEBRip 720p | Profix Media 2.63 GB ↑ 94 ↓ 8
2019-01-01 U Черное зеркало: Брандашмыг / Black Mirror: Bandersnatch (2018) WEBRip-AVC | Profix Media 1.45 GB ↑ 84 ↓ 24
2018-12-31 U Черное зеркало: Брандашмыг / Black Mirror: Bandersnatch (2018) WEBRip 1080p | Profix Media 3.54 GB ↑ 174 ↓ 91
2018-12-31 U Черное зеркало: Брандашмыг / Black Mirror: Bandersnatch (2018) WEBRip 720p | OMSKBIRD 2.05 GB ↑ 47 ↓ 4

Отзывы
Зарегистрируйтесь чтобы добавить комментарий.
Обратная связь
Copyleft ©