↑↓Torrent.by
Поиск
Логин: Регистрация
Пароль: Восстановить пароль
Загрузка...

Проводник (2018) WEB-DLRip | iTunes

Скачать provodnik-2018-web-dlrip-itunes.torrent
U Магнитная ссылка Размер: 1.46 GB Раздают: 840 Качают: 303 Добавлен: 2019-01-01 11:35:16
Проводник (2018) WEB-DLRip | iTunes

Название: Проводник
Год выхода: 2018
Жанр: Ужасы, триллер
Страна: Россия
Перевод: не требуется
Продолжительность: 01:26:18
Режиссер: Илья Максимов
В ролях: Александра Бортич, Евгений Цыганов, Александр Робак, Вячеслав Разбегаев, Владимир Яглыч, Константин Мурзенко, Юрий Скулябин, Марта Тимофеева, Екатерина Рокотова, Василий Бочкарев и др.

О фильме: Главная героиня, девушка Катя, обладает мистическим даром: она видит призраков. Когда пропадает её сестра-близнец, девушка в одиночку бросается на поиски. В полиции настаивают, что сестры вообще не существует, что она — плод Катиного больного воображения. Однако в процессе поисков сестры Катя понимает, что в городе орудует серийный маньяк, и сестра — одна из его жертв. Еще есть надежда спасти ее, но в мрачном, полном тайн городе нельзя доверять никому, даже самой себе…

Файл
Формат: AVI
Качество: WEB-DLRip
Видео: Xvid 73, 720x304, ~2018 kbps, 25,000 fps
Звук: русский, AC3, 5.1 ch, 48 kHz, 384 kbps | iTunes
Субтитры: нет


[+] MI
General
Полное имя                               : F:TorrentProvodnikWEBDLRip.avi
Формат                                   : AVI
Формат/Информация                        : Audio Video Interleave
Профиль формата                          : OpenDML
Размер файла                             : 1.46 GiB
Продолжительность                        : 1 h 26 min
Общий поток                              : 2 414 kb/s
Программа кодирования                    : XviD4PSP 6.0 / 54.27.101

Video
Идентификатор                            : 0
Формат                                   : MPEG-4 Visual
Профиль формата                          : Advanced Simple@L5
Настройки формата                        : BVOP2 / Custom Matrix
Параметр BVOP формата                    : 2
Параметр QPel формата                    : No
Параметр GMC формата                     : No warppoints
Параметр матрицы формата                 : Custom
Идентификатор кодека                     : XVID
Идентификатор кодека/Подсказка           : XviD
Продолжительность                        : 1 h 26 min
Битрейт                                  : 2 018 kb/s
Ширина                                   : 720 pixels
Высота                                   : 304 pixels
Соотношение сторон                       : 2.35:1
Частота кадров                           : 25.000 FPS
Цветовое пространство                    : YUV
Субдискретизация насыщенности            : 4:2:0
Битовая глубина                          : 8 bits
Тип развёртки                            : Progressive
Метод сжатия                             : Lossy
Бит/(Пиксели*Кадры)                      : 0.369
Размер потока                            : 1.22 GiB (84%)
Библиотека кодирования                   : XviD 73

Audio
Идентификатор                            : 1
Формат                                   : AC-3
Формат/Информация                        : Audio Coding 3
Идентификатор кодека                     : 2000
Продолжительность                        : 1 h 26 min
Вид битрейта                             : Constant
Битрейт                                  : 384 kb/s
Каналы                                   : 6 channels
Расположение каналов                     : Front: L C R, Side: L R, LFE
Частота                                  : 48.0 kHz
Частота кадров                           : 31.250 FPS (1536 SPF)
Битовая глубина                          : 16 bits
Метод сжатия                             : Lossy
Размер потока                            : 237 MiB (16%)
Выравнивание                             : Aligned on interleaves
Продолжительность промежутка             : 32  ms (0.80 video frame)




Скриншоты:
[+] Всего файлов в раздаче - 1:
ProvodnikWEBDLRip.avi1.46 GB

Текущая раздача:
ДатаКомментарии    РазмерПиры
2019-01-01 U Проводник (2018) WEB-DLRip | iTunes 2 К 1.46 GB ↑ 840 ↓ 303

Показать еще раздачи по запросу проводник:
2019-01-05 U Проводник (2018) WEB-DLRip-AVC от OlLanDGroup | iTunes 1К745.52 MB ↑ 51 ↓ 8
2019-01-03 U Проводник (2018) WEB-DLRip от Scarabey | iTunes 1.44 GB ↑ 76 ↓ 37
2019-01-02 U Проводник (2018) WEB-DLRip от GeneralFilm | iTunes 744.71 MB ↑ 151 ↓ 44
2019-01-02 U Проводник (2018) WEB-DLRip-AVC от ExKinoRay | iTunes 1.37 GB ↑ 192 ↓ 47
2019-01-02 U Проводник (2018) WEB-DLRip-AVC от OlLanDGroup | iTunes 1.28 GB ↑ 232 ↓ 59
2019-01-01 U Проводник (2018) WEB-DLRip от MegaPeer | iTunes 1.46 GB ↑ 321 ↓ 188
2019-01-01 U Проводник (2018) WEB-DL 1080p | iTunes 2.95 GB ↑ 832 ↓ 426

Отзывы
asawad
Вроде взрослый мужик, а снял... Интересно, что курил?

festa007
хороший фильм! но много недоссказаного

Зарегистрируйтесь чтобы добавить комментарий.
Обратная связь
Copyleft ©